Toba Tek Singh (2018) Hindi 720p HDRip x264 AAC Esubs 700MB


Poster


iMDB
Title: Toba Tek Singh
Year: 2018
Runtime: 75 minutes
Language: Hindi, Punjabi
All Genres: History
Director: Ketan Mehta
Writing By: Udit Chandraul,Saadat Hassan Manto,Ketan Mehta,
Produced By: Kalpesh Dubey,Shailja Kejriwal,Deepa Sahi,Vikas Sharma,
Music: Anurag Saikia
Cast:
Pankaj Kapur as Toba Tek Singh
Vinay Pathak as Saadat Hasan Manto
N.K. Pant as Hamid
Chirag Vohra as Roshan Lal / Hindu Vakil
Gaurav Dwivedi as Surajmal
Vijai Singh as Gangster Hyder
Ajay Kumar as Ittefaq Ali / Urdu News Paper Reader
Vishwa Bhanu as Mansur Ahmed / Sweeper
Sheikh Noor Islam as Khuda
Dally Daljit as Mohammed Ali / Bathing Man



Details
Name:Toba Tek Singh (2018) Hindi 720p HDRip x264 AAC Esubs 700MB [MovCr]
Description:
Toba Tek Singh (2018) Hindi 720p HDRip x264 AAC Esubs 700MB [MovCr]
 

Format                                   : Matroska
Format version                           : Version 4 / Version 2
File size                                : 704 MiB
Duration                                 : 1 h 12 min
Overall bit rate                         : 1 356 kb/s

Video
ID                                       : 1
Format                                   : AVC
Format/Info                              : Advanced Video Codec
Format profile                           : Main@L4
Format settings                          : CABAC / 4 Ref Frames
Format settings, CABAC                   : Yes
Format settings, RefFrames               : 4 frames
Codec ID                                 : V_MPEG4/ISO/AVC
Duration                                 : 1 h 12 min
Bit rate                                 : 1 300 kb/s
Width                                    : 1 280 pixels
Height                                   : 548 pixels
Display aspect ratio                     : 2.35:1
Frame rate mode                          : Constant
Frame rate                               : 24.000 FPS
Color space                              : YUV
Chroma subsampling                       : 4:2:0
Bit depth                                : 8 bits
Scan type                                : Progressive
Bits/(Pixel*Frame)                       : 0.077
Stream size                              : 670 MiB (95%)
Writing library                          : x264 core 148 r2708 86b7198
Default                                  : Yes
Forced                                   : No
Color range                              : Limited
Color primaries                          : BT.709
Transfer characteristics                 : BT.709
Matrix coefficients                      : BT.709

Audio
ID                                       : 2
Format                                   : AAC
Format/Info                              : Advanced Audio Codec
Format profile                           : LC
Codec ID                                 : A_AAC-2
Duration                                 : 1 h 12 min
Bit rate                                 : 64.5 kb/s
Channel(s)                               : 2 channels
Channel positions                        : Front: L R
Sampling rate                            : 48.0 kHz
Frame rate                               : 46.875 FPS (1024 SPF)
Compression mode                         : Lossy
Delay relative to video                  : -104 ms
Stream size                              : 33.5 MiB (5%)
Default                                  : Yes
Forced                                   : No



 
 
 
 
 
 
 
 
Category:Movies > Bollywood
Lang:Hindi
Total Size:704.38 MB



|| Download This Movie Via Single Resumable Links Size: 704 MB ||

Direct-1 Google Drive | Direct-2 | Direct-3 |

Watch Online Click Here

Post a Comment

2 Comments

  1. Gdrive link is not working.. . It says *The file you are trying to download is no longer available*..
    Please update it....

    ReplyDelete