Twelve Monkeys (1995) BluRay 720p x264 Dual Audio [Hindi DD5.1 - English DD5.1] ~ Ranvijay


Poster


iMDB
Imdb Picture Title: Twelve Monkeys
Year: 1995
Runtime: 129 minutes
Votes: 517179
Rating: 8.0/10
Language: English, French
Country: USA
All Genres: Mystery, Sci-Fi, Thriller
Plot Outline: In a future world devastated by disease, a convict is sent back in time to gather information about the man-made virus that wiped out most of the human population on the planet.
Tagline: They're Coming.
Director: Terry Gilliam
Writing By: Chris Marker,David Webb Peoples,Janet Peoples,
Produced By: Robert Cavallo,Mark Egerton,Robert Kosberg,Gary Levinsohn,Lloyd Phillips,Charles Roven,Kelley Smith-Wait,
Music: Paul Buckmaster
Cast:
Joseph Melito as Young Cole
Bruce Willis as James Cole
Jon Seda as Jose
Michael Chance as Scarface
Vernon Campbell as Tiny
H. Michael Walls as Botanist
Bob Adrian as Geologist
Simon Jones as Zoologist
Carol Florence as Astrophysicist / Jones
Bill Raymond as Microbiologist



Details
Name:Twelve Monkeys (1995) BluRay 720p x264 Dual Audio [Hindi DD5.1 - English DD5.1] ~ Ranvijay
Description:
Twelve Monkeys (1995) BluRay 720p x264 Dual Audio [Hindi DD5.1 - English DD5.1] ~ Ranvijay



Thanks To Hammer Hammer For Hindi Audio

Format                                   : Matroska
Format version                           : Version 4 / Version 2
File size                                : 1.91 GiB
Duration                                 : 2 h 9 min
Overall bit rate                         : 2 110 kb/s
Movie name                               : Twelve Monkeys (1995) 720p BluRay x264 Dual Audio [Hindi DD5.1 - English DD5.1] ~ Ranvijay

Video
Duration                                 : 2 h 9 min
Bit rate                                 : 1 500 kb/s
Width                                    : 1 280 pixels
Height                                   : 694 pixels
Display aspect ratio                     : 1.85:1
Frame rate mode                          : Constant
Frame rate                               : 23.976 (24000/1001) FPS
Original frame rate                      : 23.976 (23976/1000) FPS
Color space                              : YUV
Chroma subsampling                       : 4:2:0
Bit depth                                : 8 bits
Scan type                                : Progressive
Bits/(Pixel*Frame)                       : 0.070
Stream size                              : 1.36 GiB (71%)
Title                                    : ~Ranvijay~
Default                                  : Yes
Forced                                   : No

Audio #1
ID                                       : 2
Format                                   : AC-3
Format/Info                              : Audio Coding 3
Codec ID                                 : A_AC3
Duration                                 : 2 h 9 min
Bit rate mode                            : Constant
Bit rate                                 : 384 kb/s
Channel(s)                               : 6 channels
Channel positions                        : Front: L C R, Side: L R, LFE
Sampling rate                            : 48.0 kHz
Frame rate                               : 31.250 FPS (1536 SPF)
Bit depth                                : 16 bits
Compression mode                         : Lossy
Delay relative to video                  : 1 s 0 ms
Stream size                              : 356 MiB (18%)
Title                                    : ~Ranvijay~
Language                                 : Hindi
Service kind                             : Complete Main
Default                                  : Yes
Forced                                   : No

Audio #2
ID                                       : 3
Format                                   : AAC
Format/Info                              : Advanced Audio Codec
Format profile                           : LC
Codec ID                                 : A_AAC-2
Duration                                 : 2 h 9 min
Bit rate                                 : 224 kb/s
Channel(s)                               : 6 channels
Channel positions                        : Front: L C R, Side: L R, LFE
Sampling rate                            : 48.0 kHz
Frame rate                               : 46.875 FPS (1024 SPF)
Compression mode                         : Lossy
Stream size                              : 208 MiB (11%)
Title                                    : ~Ranvijay~
Language                                 : English
Default                                  : No
Forced                                   : No

           
Category:Movies > Hollywood Dub
Lang:Hindi
Total Size:1.91 GB



|| Download This Movie Via Single Resumable Links Size: 1.91 GB ||

Direct-1 Google Drive | Direct-2 | Direct-3 |

Watch Online Click Here

Post a Comment

0 Comments