Viraam (2017) Hindi 720p AMZN WEB-DL H264 AAC DD 2.0 Team Crazy Exclusive


Poster
923cdbcb062b9b482527ef54c01df217.jpg


iMDB
Imdb Picture Title: Viraam
Year: 2017
Votes: 14
Rating: 7.9/10
Language: Hindi
Country: India
All Genres: Drama
Plot Outline: A Dehradun based industrialist, Abhiraj Malhotra (Narendra Jha) leads a life of solitude surviving on the memories of his long-dead wife, Sunita (Monica Ravan) whom he loved madly. Suddenly, a young vivacious girl called Matun (Urmila Mahanta) comes into his life and everything is changed forever. They plan their lives together but at the end, the things don't turn out as they had planned. A drama about love, greed and loyalty, the film also explores the journey of a woman's heart.
Director: Ziaullah Khan
Writing By: Abdullah Khan,
Produced By: Rajeev Dubey,Hari Mehrotra,Aman Shah,
Music: Siddhant Madhav
Cast:
Annapurna Vitthal Bhairi as
Badrul Islam as
Narendra Jha as Abhiraj Malhotra
Kavita Khanna as Kanta
Urmila Mahanta as Maatun
Monika Ravan as Mrs.sunita malhotra
Zaid Shaikh as
Satish Sharma as
Sanjay Verma as
Tripurari Yadav as



Details
Name:Viraam (2017) Hindi 720p AMZN WEB-DL H264 AAC DD 2.0 Team Crazy Exclusive
Description:
Viraam (2017) Hindi 720p AMZN WEB-DL H264 AAC DD 2.0 Team Crazy Exclusive




Format                                   : MPEG-4
Format profile                           : Base Media
Codec ID                                 : isom (isom/iso2/avc1/mp41)
File size                                : 1.07 GiB
Duration                                 : 1 h 50 min
Overall bit rate                         : 1 391 kb/s
Writing application                      : Lavf58.12.100

Video
ID                                       : 1
Format                                   : AVC
Format/Info                              : Advanced Video Codec
Format profile                           : High@L3.1
Format settings                          : CABAC / 4 Ref Frames
Format settings, CABAC                   : Yes
Format settings, ReFrames                : 4 frames
Codec ID                                 : avc1
Codec ID/Info                            : Advanced Video Coding
Duration                                 : 1 h 50 min
Bit rate                                 : 1 243 kb/s
Width                                    : 1 274 pixels
Height                                   : 720 pixels
Display aspect ratio                     : 16:9
Frame rate mode                          : Constant
Frame rate                               : 25.000 FPS
Color space                              : YUV
Chroma subsampling                       : 4:2:0
Bit depth                                : 8 bits
Scan type                                : Progressive
Bits/(Pixel*Frame)                       : 0.054
Stream size                              : 991 MiB (90%)
Writing library                          : x264 core 148 r2643 5c65704

Audio
ID                                       : 2
Format                                   : AAC
Format/Info                              : Advanced Audio Codec
Format profile                           : LC
Codec ID                                 : mp4a-40-2
Duration                                 : 1 h 50 min
Duration_LastFrame                       : -19 ms
Bit rate mode                            : Constant
Bit rate                                 : 128 kb/s
Channel(s)                               : 2 channels
Channel(s)_Original                      : 1 channel
Channel positions                        : Front: C
Sampling rate                            : 44.1 kHz
Frame rate                               : 43.066 FPS (1024 SPF)
Compression mode                         : Lossy
Stream size                              : 101 MiB (9%)
Title                                    : Track1
Default                                  : Yes
Alternate group                          : 1



qQdYj.th.png qQ0no.th.png qQTzr.th.png qQGQH.th.png qQMTV.th.png qQYtK.th.png qQckc.th.png qQeJs.th.png qQLVz.th.png qQms3.th.png
Category:Movies > WEB-HD
Lang:Hindi
Total Size:1.07 GB



|| Download This Movie Via Single Resumable Links Size: 1.07 GB ||

Direct-1 Google Drive | Direct-2 | Direct-3 |

Watch Online Click Here

Post a Comment

0 Comments