10,000 BC (2008) BluRay 720p x264 {Dual Audio} [Hindi - English] - Hon3yHD


Poster


iMDB
Imdb Picture Title: 10,000 BC
Year: 2008
Runtime: 109 minutes
Votes: 116535
Rating: 5.1/10
Language: English
Country: USA, South Africa
All Genres: Action, Adventure, Drama, Fantasy, History
Plot Outline: A prehistoric epic that follows a young mammoth hunter named D'Leh's journey through uncharted territory to secure the future of his tribe. When a band of mysterious horse-riding warlords raid the Yaghal camp and kidnaps his heart's desire - the beautiful Evolet along with many others, D'Leh is forced to lead a small group of hunters south to pursue the warlords to the end of the world to save her. Driven by destiny, the unlikely band of warriors must battle saber-toothed cats and terror birds in the Levant. Written by Anthony Pereyra {hypersonic91@yahoo.com}
Tagline: The legend. The battle. The first hero.
Director: Roland Emmerich
Writing By: Roland Emmerich,Harald Kloser,
Produced By: Aaron Boyd,Sarah Bradshaw,Roland Emmerich,William Fay,Murray Francis,Mark Gordon,Genevieve Hofmeyr,Tom Karnowski,Harald Kloser,Scott Mednick,Thomas Tull,Oswald von Richthofen,Michael Wimer,Kirstin Winkler,
Music: Harald Kloser Thomas Wanker
Cast:
Steven Strait as D'Leh
Camilla Belle as Evolet
Cliff Curtis as Tic'Tic
Joel Virgel as Nakudu
Affif Ben Badra as Warlord
Mo Zinal as Ka'Ren
Nathanael Baring as Baku
Mona Hammond as Old Mother
Marco Khan as One-Eye
Reece Ritchie as Moha
Trailers:
10,000 B.C.



Details
Name:10,000.BC.2008.BluRay.720p.x264.{Dual.Audio}.[Hindi Org-English].-.Hon3yHD
Description:
 10,000 BC (2008) BluRay 720p x264 {Dual Audio} [Hindi - English] - Hon3yHD



Format                      : Matroska
Format version              : Version 4 / Version 2
File size                   : 1.11 GiB
Duration                    : 1 h 48 min
Overall bit rate            : 1 458 kb/s
Movie name                  : Hammer@Hon3yHD

Video
ID                          : 1
Format                      : AVC
Format/Info                 : Advanced Video Codec
Format profile              : High@L4.1
Format settings             : CABAC / 8 Ref Frames
Format settings, CABAC      : Yes
Format settings, ReFrames   : 8 frames
Codec ID                    : V_MPEG4/ISO/AVC
Duration                    : 1 h 48 min
Bit rate                    : 1 200 kb/s
Width                       : 1 280 pixels
Height                      : 532 pixels
Display aspect ratio        : 2.40:1
Frame rate mode             : Constant
Frame rate                  : 23.976 (24000/1001) FPS

Audio #1
ID                          : 2
Format                      : AAC
Format/Info                 : Advanced Audio Codec
Format profile              : LC
Codec ID                    : A_AAC-2
Duration                    : 1 h 48 min
Bit rate                    : 128 kb/s
Channel(s)                  : 2 channels
Channel positions           : Front: L R
Sampling rate               : 48.0 kHz
Frame rate                  : 46.875 FPS (1024 SPF)
Compression mode            : Lossy
Delay relative to video     : -21 ms
Stream size                 : 99.9 MiB (9%)
Title                       : Stereo
Language                    : Hindi

Audio #2
ID                          : 3
Format                      : AAC
Format/Info                 : Advanced Audio Codec
Format profile              : LC
Codec ID                    : A_AAC-2
Duration                    : 1 h 48 min
Bit rate                    : 128 kb/s
Channel(s)                  : 2 channels
Channel positions           : Front: L R
Sampling rate               : 48.0 kHz
Frame rate                  : 46.875 FPS (1024 SPF)
Compression mode            : Lossy
Delay relative to video     : -21 ms
Stream size                 : 99.8 MiB (9%)
Title                       : Stereo
Language                    : English

       
Category:Movies > Hollywood Dub
Lang:Hindi
Total Size:1.11 GB



|| Download This Movie Via Single Resumable Links Size: 1.11 GB ||

Direct-1 Google Drive | Direct-2 | Direct-3 |

Watch Online Click Here

Post a Comment

0 Comments