Adrishya (2017) Hindi 1080p HDTV-Rip x264 AAC DD2.0 -TeamCrazy


Poster


iMDB
Title: Adrishya
Year: 2017
Runtime: 106 minutes
Votes: 30
Rating: 8.7/10
Language: Hindi
Director: Sandeep Chatterjee
Writing By: Alka Agraval,Vivek Agrawal,Sandeep Chatterjee,
Produced By: Arunjit Borah,Sandeep Chatterjee,Satish Poojary,Deepak Shah,
Music: Aslam Surty
Cast:
Nishat Mallick as Vikram
'Om' Rakesh Chaturvedi as Dr. Shastri
Archana Kotwal as Aditi
Ravi Kumar as Samar Rana
Nidhi Mahawan as Sonali
Ayesha Singh as Reena
Adbur Rehman as Dhruv
Pakhi Mendola as Pakhi
Abhijit Sinha as Inspector Godbole
Arya Priye as Dr. Ghosh



Details
Name:Adrishya (2017) Hindi 1080p HDTV x264 AAC DD2.0 -TeamCrazy
Description:
Adrishya (2017) Hindi 1080p HDTV x264 AAC DD2.0 -TeamCrazy





Source :- TeamTelly


Format                                   : MPEG-4
Format profile                           : Base Media
Codec ID                                 : isom (isom/iso2/avc1/mp41)
File size                                : 1.65 GiB
Duration                                 : 1 h 34 min
Overall bit rate                         : 2 495 kb/s

Video
ID                                       : 1
Format                                   : AVC
Format/Info                              : Advanced Video Codec
Format profile                           : High@L4
Format settings                          : CABAC / 4 Ref Frames
Format settings, CABAC                   : Yes
Format settings, ReFrames                : 4 frames
Codec ID                                 : avc1
Codec ID/Info                            : Advanced Video Coding
Duration                                 : 1 h 34 min
Bit rate                                 : 2 349 kb/s
Width                                    : 1 920 pixels
Height                                   : 1 080 pixels
Display aspect ratio                     : 16:9
Frame rate mode                          : Constant
Frame rate                               : 25.000 FPS
Color space                              : YUV
Chroma subsampling                       : 4:2:0
Bit depth                                : 8 bits
Scan type                                : Progressive
Bits/(Pixel*Frame)                       : 0.045
Stream size                              : 1.56 GiB (95%)
Writing library                          : x264 core 148 r2643 5c65704

Audio
ID                                       : 2
Format                                   : AAC
Format/Info                              : Advanced Audio Codec
Format profile                           : LC
Codec ID                                 : mp4a-40-2
Duration                                 : 1 h 34 min
Duration_LastFrame                       : -5 ms
Bit rate mode                            : Constant
Bit rate                                 : 128 kb/s
Channel(s)                               : 2 channels
Channel(s)_Original                      : 1 channel
Channel positions                        : Front: C
Sampling rate                            : 44.1 kHz
Frame rate                               : 43.066 FPS (1024 SPF)
Compression mode                         : Lossy
Stream size                              : 86.8 MiB (5%)
Title                                    : Track1
Default                                  : Yes
Alternate group                          : 1



Yow8q.th.png YoXFW.th.png Yo6yn.th.png YoDXQ.th.png YolKh.th.png YoC4j.th.png Yotcr.th.png YobUo.th.png YoNbV.th.png YoEqH.th.png Yop9K.th.png
Category:Movies > Bollywood
Lang:Hindi
Total Size:1.65 GB





|| Download This Movie Via Single Resumable Links Size: 1.65 GB ||

Direct-1 Google Drive | Direct-2 | Direct-3 |

Watch Online Click Here

Post a Comment

0 Comments