Animal House (1978) BluRay 720p x264 [Dual Audio] [Hindi DD 5.1 - Eng] AAC Esub -=!Katyayan!=-


Poster


iMDB
Imdb Picture Title: Animal House
Year: 1978
Runtime: 109 minutes
Votes: 99044
Rating: 7.6/10
Language: English, Italian
Country: USA
All Genres: Comedy
Plot Outline: At a 1962 college, Dean Vernon Wormer is determined to expel the entire Delta Tau Chi Fraternity, but those troublemakers have other plans for him.
Tagline: It was the Deltas against the rules... the rules lost!
Director: John Landis
Writing By: Harold Ramis,Douglas Kenney,Chris Miller,
Produced By: Ivan Reitman,Matty Simmons,
Music: Elmer Bernstein
Cast:
Tom Hulce as Larry Kroger
Stephen Furst as Kent Dorfman
Mark Metcalf as Doug Neidermeyer
Mary Louise Weller as Mandy Pepperidge
Martha Smith as Babs Jansen
James Daughton as Greg Marmalard
Kevin Bacon as Chip Diller
John Belushi as John Blutarsky
Douglas Kenney as Stork
Chris Miller as Hardbar
Trailers:
National Lampoon's Animal House



Details
Name:Animal House (1978) BluRay 720p x264 [Dual Audio] [Hindi DD 5.1 - Eng] AAC Esub -=!Katyayan!=-
Description:

Animal House 1978 BluRay 720p x264 [Dual Audio] [Hindi DD 5.1 - Eng] AAC Esub -=!Katyayan!=-

 

-=====================Source Credit=====================-
:::::::::::::::::::> Video ---- Rarbg
:::::::::::::::::::> Audio ---- Org Untouched DD 5.1 640Kbps Hindi By ~Team M2TV

Format                                   : Matroska
Format version                           : Version 4
File size                                : 899 MiB
Duration                                 : 1 h 48 min
Overall bit rate                         : 1 156 kb/s
Movie name                               : Animal House 1978 BluRay 720p x264 [Dual Audio] [Hindi DD 5.1 - Eng] AAC Esub -=!Katyayan!=-
Encoded date                             : UTC 2018-09-16 07:33:02
Writing application                      : mkvmerge v24.0.0 ('Beyond The Pale') 64-bit
Writing library                          : libebml v1.3.6 + libmatroska v1.4.9
Cover                                    : Yes
Attachments                              : Animal House 1978 Cover.jpg

Video
ID                                       : 1
Format                                   : AVC
Format/Info                              : Advanced Video Codec
Format profile                           : High@L4
Format settings                          : CABAC / 7 Ref Frames
Format settings, CABAC                   : Yes
Format settings, RefFrames               : 7 frames
Codec ID                                 : V_MPEG4/ISO/AVC
Duration                                 : 1 h 48 min
Bit rate                                 : 865 kb/s
Width                                    : 1 280 pixels
Height                                   : 688 pixels
Display aspect ratio                     : 1.85:1
Frame rate mode                          : Constant
Frame rate                               : 23.976 (24000/1001) FPS
Color space                              : YUV
Chroma subsampling                       : 4:2:0
Bit depth                                : 8 bits
Scan type                                : Progressive
Bits/(Pixel*Frame)                       : 0.041
Stream size                              : 673 MiB (75%)
Title                                    : Animal House 1978 BluRay 720p x264 [Dual Audio] [Hindi DD 5.1 - Eng] AAC Esub -=!Katyayan!=-
Writing library                          : x264 core 125 r2200 999b753
Language                                 : English
Default                                  : Yes
Forced                                   : No

Audio #1
ID                                       : 2
Format                                   : AAC LC
Format/Info                              : Advanced Audio Codec Low Complexity
Codec ID                                 : A_AAC-2
Duration                                 : 1 h 48 min
Bit rate                                 : 192 kb/s
Channel(s)                               : 6 channels
Channel layout                           : C L R Ls Rs LFE
Sampling rate                            : 48.0 kHz
Frame rate                               : 46.875 FPS (1024 SPF)
Compression mode                         : Lossy
Stream size                              : 149 MiB (17%)
Title                                    : -=!Katyayan!=-
Language                                 : Hindi
Default                                  : Yes
Forced                                   : Yes

Audio #2
ID                                       : 3
Format                                   : AAC LC
Format/Info                              : Advanced Audio Codec Low Complexity
Codec ID                                 : A_AAC-2
Duration                                 : 1 h 48 min
Bit rate                                 : 96.0 kb/s
Channel(s)                               : 2 channels
Channel layout                           : L R
Sampling rate                            : 48.0 kHz
Frame rate                               : 46.875 FPS (1024 SPF)
Compression mode                         : Lossy
Stream size                              : 74.5 MiB (8%)
Title                                    : -=!Katyayan!=-
Language                                 : English
Default                                  : No
Forced                                   : No

Text
ID                                       : 4
Format                                   : UTF-8
Codec ID                                 : S_TEXT/UTF8
Codec ID/Info                            : UTF-8 Plain Text
Duration                                 : 1 h 43 min
Bit rate                                 : 49 b/s
Count of elements                        : 1184
Stream size                              : 37.7 KiB (0%)
Title                                    : -=!Katyayan!=-
Language                                 : English
Default                                  : Yes
Forced                                   : Yes



 
Category:Movies > Hollywood Dub
Lang:Hindi
Total Size:899.56 MB





|| Download This Movie Via Single Resumable Links Size: 899 MB ||

Direct-1 Google Drive | Direct-2 | Direct-3 |

Watch Online Click Here

Post a Comment

0 Comments