Athiratha (2017) Hindi Dub 720p UntoucheD WEB-HD AVC AAC


Poster




iMDB
https://in.bmscdn.com/iedb/movies/images/website/poster/large/athiratha-et00065319-16-11-2017-07-11-28.jpg Title: Athiratha
Year: 2017
Language: Kannada
All Genres: Action, Thriller
Director: Mahesh Babu
Writing By: T.N. Santhosh,
Produced By: Gandasi Manjunath,Prem,Dr. Venugopal,
Music: Suraag
Cast:
Chethan Kumar as
Latha Hegde as
Kabir Duhan Singh as
Sadhu Kokila as
Avinash as
Achyuth Kumar as
Sudha Belawadi as
Aruna Balaraj as
Ester Noronha as Special appearance



Details
Name:Athiratha (2017) Hindi Dub 720p UntoucheD WEB-HD AVC AAC
Description:
Athiratha (2017) Hindi Dub 720p UntoucheD WEB-HD AVC AAC






Format                                   : MPEG-4
Format profile                           : Base Media / Version 2
Codec ID                                 : mp42 (isom/mp42)
File size                                : 850 MiB
Duration                                 : 1 h 53 min
Overall bit rate mode                    : Variable
Overall bit rate                         : 1 048 kb/s
Encoded date                             : UTC 2018-09-07 12:09:33
Tagged date                              : UTC 2018-09-07 12:09:33
gsst                                     : 0
gstd                                     : 6802169

Video
ID                                       : 1
Format                                   : AVC
Format/Info                              : Advanced Video Codec
Format profile                           : Main@L3.1
Format settings                          : CABAC / 3 Ref Frames
Format settings, CABAC                   : Yes
Format settings, ReFrames                : 3 frames
Codec ID                                 : avc1
Codec ID/Info                            : Advanced Video Coding
Duration                                 : 1 h 53 min
Bit rate                                 : 919 kb/s
Width                                    : 1 280 pixels
Height                                   : 720 pixels
Display aspect ratio                     : 16:9
Frame rate mode                          : Constant
Frame rate                               : 25.000 FPS
Color space                              : YUV
Chroma subsampling                       : 4:2:0
Bit depth                                : 8 bits
Scan type                                : Progressive
Bits/(Pixel*Frame)                       : 0.040
Stream size                              : 745 MiB (88%)
Title                                    : ISO Media file produced by Google Inc. Created on: 09/07/2018.
Encoded date                             : UTC 2018-09-07 12:09:33
Tagged date                              : UTC 2018-09-07 12:09:33
Color range                              : Limited
Color primaries                          : BT.709
Transfer characteristics                 : BT.709
Matrix coefficients                      : BT.709

Audio
ID                                       : 2
Format                                   : AAC
Format/Info                              : Advanced Audio Codec
Format profile                           : LC
Codec ID                                 : mp4a-40-2
Duration                                 : 1 h 53 min
Bit rate mode                            : Variable
Bit rate                                 : 126 kb/s
Channel(s)                               : 2 channels
Channel positions                        : Front: L R
Sampling rate                            : 44.1 kHz
Frame rate                               : 43.066 FPS (1024 SPF)
Compression mode                         : Lossy
Stream size                              : 102 MiB (12%)
Title                                    : ISO Media file produced by Google Inc. Created on: 09/07/2018.
Language                                 : English
Encoded date                             : UTC 2018-09-07 12:09:33
Tagged date                              : UTC 2018-09-07 12:09:33

ca294908eaffbf1f733885272e48fbc2.jpg
Category:Movies > South Dub
Lang:Hindi
Total Size:849.90 MB





|| Download This Movie Via Single Resumable Links Size: 850 MB ||

Direct-1 Google Drive | Direct-2 | Direct-3 |

Watch Online Click Here

Post a Comment

0 Comments