Barbie Dolphin Magic (2017) 720p HDRip x264 [Dual Audio] [Hindi DD 5.1 - Eng] AAC Esub -=!Katyayan!=-


Poster


iMDB
Imdb Picture Original Title: Barbie: Dolphin Magic
Title: Barbie et la Magie des Dauphins
Year: 2017
Runtime: 63 minutes
Votes: 46
Rating: 7.6/10
Language: English
Country: Canada
All Genres: Animation, Adventure
Plot Outline: "In this fun, underwater adventure, Barbie and her sisters visit Ken at his summer internship where he works at a coral reef researching dolphins. While diving and exploring the reef, the ...
Director: Michael Douglas
Conrad Helten
Writing By: Kacey Arnold,Jennifer Skelly,
Produced By: Jennifer-Jo Barker,Rachael Datello,Michael Hefferon,Kallan Kagan,Christopher Keenan,Julia Pistor,Sarah Serata,Kim Dent Wilder,
Cast:
Erica Lindbeck as Barbie
Shannon Chan-Kent as Isla
Kazumi Evans as Skipper
Claire Margaret Corlett as Stacie
Alyssya Swales as Chelsea
Adrian Petriw as Ken
Maryke Hendrikse as Marlo
Paul Dobson as Hugo
Garry Chalk as Pete



Details
Name:Barbie Dolphin Magic (2017) 720p HDRip x264 [Dual Audio] [Hindi DD 5.1 - Eng] AAC Esub -=!Katya...
Description:

Barbie Dolphin Magic (2017) 720p HDRip x264 [Dual Audio] [Hindi DD 5.1 - Eng] AAC Esub -=!Katyayan!=-
 


-=====================Source Credit=====================-
:::::::::::::::::::> Video ---- Hon3y
:::::::::::::::::::> Audio ---- Org Untouched DD 5.1 640Kbps Hindi By ~Team M2TV



Format                                   : Matroska
Format version                           : Version 4 / Version 2
File size                                : 722 MiB
Duration                                 : 1 h 4 min
Overall bit rate                         : 1 570 kb/s
Movie name                               : Barbie Dolphin Magic (2017) 720p HDRip x264 [Dual Audio] [Hindi DD 5.1 - Eng] AAC Esub -=!Katyayan!=-
Encoded date                             : UTC 2018-08-18 13:44:45
Writing application                      : mkvmerge v24.0.0 ('Beyond The Pale') 64-bit
Writing library                          : libebml v1.3.6 + libmatroska v1.4.9
Cover                                    : Yes
Attachments                              : Barbie Dolphin Magic (2017) Cover

Video
ID                                       : 1
Format                                   : AVC
Format/Info                              : Advanced Video Codec
Format profile                           : High@L4.1
Format settings                          : CABAC / 8 Ref Frames
Format settings, CABAC                   : Yes
Format settings, RefFrames               : 8 frames
Codec ID                                 : V_MPEG4/ISO/AVC
Duration                                 : 1 h 3 min
Bit rate                                 : 1 300 kb/s
Width                                    : 1 280 pixels
Height                                   : 720 pixels
Display aspect ratio                     : 16:9
Frame rate mode                          : Constant
Frame rate                               : 23.976 (24000/1001) FPS
Color space                              : YUV
Chroma subsampling                       : 4:2:0
Bit depth                                : 8 bits
Scan type                                : Progressive
Bits/(Pixel*Frame)                       : 0.059
Stream size                              : 590 MiB (82%)
Title                                    : Barbie Dolphin Magic (2017) 720p HDRip x264 [Dual Audio] [Hindi DD 5.1 - Eng] AAC Esub -=!Katyayan!=-
Writing library                          : x264 core 148 r2708 86b7198
Language                                 : English
Default                                  : Yes
Forced                                   : No
Color range                              : Limited
Color primaries                          : BT.709
Transfer characteristics                 : BT.709
Matrix coefficients                      : BT.709

Audio #1
ID                                       : 2
Format                                   : AAC
Format/Info                              : Advanced Audio Codec
Format profile                           : LC
Codec ID                                 : A_AAC-2
Duration                                 : 1 h 4 min
Bit rate                                 : 192 kb/s
Channel(s)                               : 6 channels
Channel positions                        : Front: L C R, Side: L R, LFE
Sampling rate                            : 48.0 kHz
Frame rate                               : 46.875 FPS (1024 SPF)
Compression mode                         : Lossy
Delay relative to video                  : -21 ms
Stream size                              : 87.4 MiB (12%)
Title                                    : -=!Katyayan!=-
Language                                 : Hindi
Default                                  : Yes
Forced                                   : Yes

Audio #2
ID                                       : 3
Format                                   : AAC
Format/Info                              : Advanced Audio Codec
Format profile                           : LC
Codec ID                                 : A_AAC-2
Duration                                 : 1 h 3 min
Bit rate                                 : 96.0 kb/s
Channel(s)                               : 2 channels
Channel positions                        : Front: L R
Sampling rate                            : 48.0 kHz
Frame rate                               : 46.875 FPS (1024 SPF)
Compression mode                         : Lossy
Delay relative to video                  : -21 ms
Stream size                              : 43.6 MiB (6%)
Title                                    : -=!Katyayan!=-
Language                                 : English
Default                                  : No
Forced                                   : No

Text
ID                                       : 4
Format                                   : ASS
Codec ID                                 : S_TEXT/ASS
Codec ID/Info                            : Advanced Sub Station Alpha
Duration                                 : 1 h 2 min
Bit rate                                 : 167 b/s
Count of elements                        : 1696
Compression mode                         : Lossless
Stream size                              : 77.1 KiB (0%)
Title                                    : -=!Katyayan!=-
Language                                 : English
Default                                  : Yes
Forced                                   : Yes



 
Category:Movies > Hollywood Dub
Lang:Hindi
Total Size:722.74 MB





|| Download This Movie Via Single Resumable Links Size: 722 MB ||

Direct-1 Google Drive | Direct-2 | Direct-3 |

Watch Online Click Here

Post a Comment

0 Comments