Barbie in Princess Power (2015) BluRay 720p x264 [Dual Audio] [Hindi DD 5.1 - Eng] AAC Esub -=!Katyayan!=-


Poster


iMDB
Imdb Picture Title: Barbie in Princess Power
Year: 2015
Runtime: 73 minutes
Votes: 538
Rating: 5.7/10
Language: English
Country: USA
All Genres: Animation, Family, Fantasy
Plot Outline: One day, after being kissed by a magical butterfly, Kara soon discovers she has amazing super powers allowing her to transform into Super Sparkle, her secret, crime-fighting alter ego who flies around the kingdom ready to save the day! But it's not long before her jealous cousin catches the butterfly and also transforms - this time into Dark Sparkle, her nemesis.
Director: Ezekiel Norton
Writing By: Marsha F. Griffin,
Produced By: Lilian Bravo,Margaret M. Dean,Kylie Ellis,Gabrielle Miles Hill,Shelley Tabbut,David Voss,David Wiebe,Kim Dent Wilder,
Music: Jim Dooley
Cast:
Kelly Sheridan as Kara / Super Sparkle
Britt Irvin as Corinne / Dark Sparkle
Michael Kopsa as Baron Von Ravendale
Rebecca Husain as Madison
Chelsea Miller as Zooey
Kira Tozer as Makalya
Patricia Drake as Queen Karina
Michael Adamthwaite as King Kristoff / Construction Worker
David Kaye as Wes Rivers
Alyssya Swales as Gabby
Trailers:
Barbie In Princess Power



Details
Name:Barbie in Princess Power (2015) BluRay 720p x264 [Dual Audio] [Hindi DD 5.1 - Eng] AAC Esub -=!...
Description:

Barbie in Princess Power (2015) BluRay 720p x264 [Dual Audio] [Hindi DD 5.1 - Eng] AAC Esub -=!Katyayan!=-


 


-=====================Source Credit=====================-
:::::::::::::::::::> Video ---- Ozlem
:::::::::::::::::::> Audio ---- Org Untouched DD 5.1 640Kbps Hindi By ~Team M2TV



Format                                   : Matroska
Format version                           : Version 4 / Version 2
File size                                : 679 MiB
Duration                                 : 1 h 13 min
Overall bit rate                         : 1 288 kb/s
Movie name                               : Barbie in Princess Power (2015) BluRay 720p x264 [Dual Audio] [Hindi DD 5.1 - Eng] AAC Esub -=!Katyayan!=-
Encoded date                             : UTC 2018-08-17 17:59:09
Writing application                      : mkvmerge v24.0.0 ('Beyond The Pale') 64-bit
Writing library                          : libebml v1.3.6 + libmatroska v1.4.9
Cover                                    : Yes
Attachments                              : Barbie in Princess Power (2015) Cover

Video
ID                                       : 1
Format                                   : AVC
Format/Info                              : Advanced Video Codec
Format profile                           : High@L4.1
Format settings                          : CABAC / 5 Ref Frames
Format settings, CABAC                   : Yes
Format settings, RefFrames               : 5 frames
Codec ID                                 : V_MPEG4/ISO/AVC
Duration                                 : 1 h 13 min
Bit rate                                 : 999 kb/s
Width                                    : 1 280 pixels
Height                                   : 720 pixels
Display aspect ratio                     : 16:9
Frame rate mode                          : Constant
Frame rate                               : 23.976 (24000/1001) FPS
Color space                              : YUV
Chroma subsampling                       : 4:2:0
Bit depth                                : 8 bits
Scan type                                : Progressive
Bits/(Pixel*Frame)                       : 0.045
Stream size                              : 527 MiB (78%)
Title                                    : Barbie in Princess Power (2015) BluRay 720p x264 [Dual Audio] [Hindi DD 5.1 - Eng] AAC Esub -=!Katyayan!=-
Writing library                          : x264 core 142 r2431 ac76440
Language                                 : English
Default                                  : Yes
Forced                                   : No
Color range                              : Limited
Color primaries                          : BT.709
Matrix coefficients                      : BT.709

Audio #1
ID                                       : 2
Format                                   : AAC
Format/Info                              : Advanced Audio Codec
Format profile                           : LC
Codec ID                                 : A_AAC-2
Duration                                 : 1 h 13 min
Bit rate                                 : 192 kb/s
Channel(s)                               : 6 channels
Channel positions                        : Front: L C R, Side: L R, LFE
Sampling rate                            : 48.0 kHz
Frame rate                               : 46.875 FPS (1024 SPF)
Compression mode                         : Lossy
Stream size                              : 101 MiB (15%)
Title                                    : -=!Katyayan!=-
Language                                 : Hindi
Default                                  : Yes
Forced                                   : Yes

Audio #2
ID                                       : 3
Format                                   : AAC
Format/Info                              : Advanced Audio Codec
Format profile                           : LC
Codec ID                                 : A_AAC-2
Duration                                 : 1 h 13 min
Bit rate                                 : 93.3 kb/s
Channel(s)                               : 2 channels
Channel positions                        : Front: L R
Sampling rate                            : 48.0 kHz
Frame rate                               : 46.875 FPS (1024 SPF)
Compression mode                         : Lossy
Stream size                              : 49.2 MiB (7%)
Title                                    : -=!Katyayan!=-
Language                                 : English
Default                                  : No
Forced                                   : No

Text
ID                                       : 4
Format                                   : UTF-8
Codec ID                                 : S_TEXT/UTF8
Codec ID/Info                            : UTF-8 Plain Text
Duration                                 : 1 h 9 min
Bit rate                                 : 61 b/s
Count of elements                        : 1349
Stream size                              : 31.3 KiB (0%)
Title                                    : -=!Katyayan!=-
Language                                 : English
Default                                  : Yes
Forced                                   : Yes


 

Category:Movies > Hollywood Dub
Lang:Hindi
Total Size:679.81 MB





|| Download This Movie Via Single Resumable Links Size: 679 MB ||

Direct-1 Google Drive | Direct-2 | Direct-3 |

Watch Online Click Here



Post a Comment

0 Comments