Battleship (2012) BluRay 720p x264 {Dual Audio} [Hindi - English] - Hon3yHD


Poster


iMDB
Title: Battleship
Year: 2012
Runtime: 131 minutes
Language: English, Japanese
All Genres: Action, Adventure, Sci-Fi, Thriller
Tagline: The battle for Earth begins at sea.
Director: Peter Berg
Writing By: Jon Hoeber,Erich Hoeber,
Produced By: Braden Aftergood,Todd Arnow,Sarah Aubrey,Peter Berg,Chen On Chu,Tami Goldman,Brian Goldner,Eric Heffron,Duncan Henderson,Petra Holtorf,Jon Mone,Bennett Schneir,Scott Stuber,
Music: Steve Jablonsky
Cast:
Taylor Kitsch as Lieutenant Alex Hopper
Alexander SkarsgÄrd as Commander Stone Hopper
Rihanna as Petty Officer Cora 'Weps' Raikes
Brooklyn Decker as Sam
Tadanobu Asano as Captain Yugi Nagata
Hamish Linklater as Cal Zapata
Liam Neeson as Admiral Shane
Peter MacNicol as Secretary of Defense
John Tui as Chief Petty Officer Walter 'The Beast' Lynch
Jesse Plemons as Boatswain Mate Seaman Jimmy 'Ordy' Ord
Trailers:
No. 3
No. 3
Super Bowl Spot
No. 2
No. 2
Trailer #1



Details
Name:Battleship.2012.BluRay.720p.x264.{Dual.Audio}.[Hindi.Org-English].-.Hon3yHD
Description:
Battleship (2012) BluRay 720p x264 {Dual Audio} [Hindi - English] - Hon3yHD



Format                      : Matroska
Format version              : Version 4 / Version 2
File size                   : 1.40 GiB
Duration                    : 2 h 11 min
Overall bit rate            : 1 523 kb/s

Video
ID                          : 1
Format                      : AVC
Format/Info                 : Advanced Video Codec
Format profile              : High@L4.1
Format settings             : CABAC / 8 Ref Frames
Format settings, CABAC      : Yes
Format settings, ReFrames   : 8 frames
Codec ID                    : V_MPEG4/ISO/AVC
Duration                    : 2 h 11 min
Bit rate                    : 1 200 kb/s
Width                       : 1 280 pixels
Height                      : 532 pixels
Display aspect ratio        : 2.40:1
Frame rate mode             : Constant
Frame rate                  : 23.976 (24000/1001) FPS

Audio #1
ID                          : 2
Format                      : AAC
Format/Info                 : Advanced Audio Codec
Format profile              : LC
Codec ID                    : A_AAC-2
Duration                    : 2 h 11 min
Bit rate                    : 160 kb/s
Channel(s)                  : 2 channels
Channel positions           : Front: L R
Sampling rate               : 48.0 kHz
Frame rate                  : 46.875 FPS (1024 SPF)
Compression mode            : Lossy
Delay relative to video     : -21 ms
Stream size                 : 150 MiB (11%)
Title                       : Stereo
Language                    : Hindi

Audio #2
ID                          : 3
Format                      : AAC
Format/Info                 : Advanced Audio Codec
Format profile              : LC
Codec ID                    : A_AAC-2
Duration                    : 2 h 11 min
Bit rate                    : 160 kb/s
Channel(s)                  : 2 channels
Channel positions           : Front: L R
Sampling rate               : 48.0 kHz
Frame rate                  : 46.875 FPS (1024 SPF)
Compression mode            : Lossy
Delay relative to video     : -21 ms
Stream size                 : 150 MiB (11%)
Title                       : Stereo
Language                    : English

 
Category:Movies > Hollywood Dub
Lang:Hindi
Total Size:1.40 GB





|| Download This Movie Via Single Resumable Links Size: 1.40 GB ||

Direct-1 Google Drive | Direct-2 | Direct-3 |

Watch Online Click Here

Post a Comment

0 Comments