Black Hawk Down (2001) BluRay 720p x264 {Dual Audio} [Hindi - English] - Hon3yHD


Poster



iMDB
Imdb Picture Title: Black Hawk Down
Year: 2001
Runtime: 144 minutes
Votes: 309710
Rating: 7.7/10
Language: English, Somali
Country: USA, UK
All Genres: Drama, History, War
Plot Outline: 160 elite U.S. soldiers drop into Somalia to capture two top lieutenants of a renegade warlord and find themselves in a desperate battle with a large force of heavily-armed Somalis.
Tagline: Rangers Lead the Way.
Director: Ridley Scott
Writing By: Mark Bowden,Ken Nolan,
Produced By: Jerry Bruckheimer,Harry Humphries,Branko Lustig,Terry Needham,Chad Oman,Pat Sandston,Ridley Scott,Mike Stenson,Simon West,
Music: Hans Zimmer
Plot:
Action/war drama based on the best-selling book detailing a near-disastrous mission in Somalia on October 3, 1993. On this date nearly 100 U.S. Army Rangers, commanded by Capt. Mike Steele, were dropped by helicopter deep into the capital city of Mogadishu to capture two top lieutenants of a Somali warlord. This led to a large and drawn-out firefight between the Army Ranges, US Special Forces, and hundreds of Somali gunmen; resulting in the destruction of two U.S. Black Hawk helicopters. The film focuses on the heroic efforts of various Rangers to get to the downed black hawks, centering on SSG Eversmann, leading the Ranger unit Chalk Four to the first black hawk crash site, Chief Warrant Officer Durant who was captured after being the only survivor of the second black hawk crash, as well as many others who were involved.
- Written by Matthew Patay: revised by Corbin L.
160 elite U.S. soldiers drop into Somalia to capture two top lieutenants of a renegade warlord and find themselves in a desperate battle with a large force of heavily-armed Somalis.

Cast:
Josh Hartnett as Eversmann
Ewan McGregor as Grimes
Tom Sizemore as McKnight
Eric Bana as Hoot
William Fichtner as Sanderson
Ewen Bremner as Nelson
Sam Shepard as Garrison
Gabriel Casseus as Kurth
Kim Coates as Wex
Hugh Dancy as Schmid



Details
Name:Black.Hawk.Down.2001.BluRay.720p.x264.{Dual.Audio}.[Hindi.Org-English].-.Hon3yHD
Description:
Black Hawk Down 2001 BluRay 720p x264 {Dual Audio} [Hindi Org-English] - Hon3yHD


Format                      : Matroska
Format version              : Version 4 / Version 2
File size                   : 1.53 GiB
Duration                    : 2 h 24 min
Overall bit rate            : 1 520 kb/s
Movie name                  : ~Hammer~

Video
ID                          : 1
Format                      : AVC
Format/Info                 : Advanced Video Codec
Format profile              : High@L4.1
Format settings             : CABAC / 8 Ref Frames
Format settings, CABAC      : Yes
Format settings, ReFrames   : 8 frames
Codec ID                    : V_MPEG4/ISO/AVC
Duration                    : 2 h 23 min
Bit rate                    : 1 200 kb/s
Width                       : 1 280 pixels
Height                      : 532 pixels
Display aspect ratio        : 2.40:1
Frame rate mode             : Constant
Frame rate                  : 23.976 (24000/1001) FPS

Audio #1
ID                          : 2
Format                      : AAC
Format/Info                 : Advanced Audio Codec
Format profile              : LC
Codec ID                    : A_AAC-2
Duration                    : 2 h 23 min
Bit rate                    : 160 kb/s
Channel(s)                  : 2 channels
Channel positions           : Front: L R
Sampling rate               : 48.0 kHz
Frame rate                  : 46.875 FPS (1024 SPF)
Compression mode            : Lossy
Delay relative to video     : 54 ms
Stream size                 : 164 MiB (10%)
Title                       : Stereo
Language                    : Hindi

Audio #2
ID                          : 3
Format                      : AAC
Format/Info                 : Advanced Audio Codec
Format profile              : LC
Codec ID                    : A_AAC-2
Duration                    : 2 h 24 min
Bit rate                    : 159 kb/s
Channel(s)                  : 2 channels
Channel positions           : Front: L R
Sampling rate               : 48.0 kHz
Frame rate                  : 46.875 FPS (1024 SPF)
Compression mode            : Lossy
Delay relative to video     : -21 ms
Stream size                 : 165 MiB (10%)
Title                       : Stereo
Language                    : English

 
Category:Movies > Hollywood Dub
Lang:Hindi
Total Size:1.53 GB



|| Download This Movie Via Single Resumable Links Size: 1.53 GB ||

Direct-1 Google Drive | Direct-2 | Direct-3 |

Watch Online Click Here

Post a Comment

0 Comments