Casper (1995) BluRay 720p x264 Dual Audio [Hindi DD2.0 - English DD2.0] ~ Ranvijay


Poster


iMDB
Title: Casper
Year: 1995
Runtime: 100 minutes
Language: English
All Genres: Comedy, Family, Fantasy
Tagline: Home is where the haunt is
Director: Brad Silberling
Writing By: Joseph Oriolo,Sherri Stoner,Deanna Oliver,
Produced By: Paul Deason,Jeff Franklin,Gerald R. Molen,Jeffrey A. Montgomery,Steven Spielberg,Steve Waterman,Colin Wilson,
Music: James Horner
Cast:
Chauncey Leopardi as Nicky
Spencer Vrooman as Andreas
Malachi Pearson as Casper
Cathy Moriarty as Carrigan
Eric Idle as Dibbs
Ben Stein as Rugg
Don Novello as Father Guido Sarducci
Fred Rogers as Mr. Rogers
Terry Murphy as Terry Murphy ('Hard Copy')
Bill Pullman as Dr. Harvey
Trailers:
Casper



Details
Name:Casper (1995) BluRay 720p x264 Dual Audio [Hindi DD2.0 - English DD2.0] ~ Ranvijay
Description:
Casper (1995) BluRay 720p x264 Dual Audio [Hindi DD2.0 - English DD2.0] ~ Ranvijay



Format                                   : Matroska
Format version                           : Version 4 / Version 2
File size                                : 845 MiB
Duration                                 : 1 h 40 min
Overall bit rate                         : 1 180 kb/s
Movie name                               : Casper (1995) 720p BluRay x264 Dual Audio [Hindi DD2.0 - English DD2.0] ~ Ranvijay

Video
ID                                       : 1
Format                                   : AVC
Format/Info                              : Advanced Video Codec
Format profile                           : High@L4.1
Format settings                          : CABAC / 4 Ref Frames
Format settings, CABAC                   : Yes
Format settings, RefFrames               : 4 frames
Codec ID                                 : V_MPEG4/ISO/AVC
Duration                                 : 1 h 40 min
Bit rate                                 : 956 kb/s
Width                                    : 1 280 pixels
Height                                   : 688 pixels
Display aspect ratio                     : 1.85:1
Frame rate mode                          : Constant
Frame rate                               : 23.976 (24000/1001) FPS
Original frame rate                      : 23.976 (23976/1000) FPS
Stream size                              : 685 MiB (81%)
Title                                    : ~Ranvijay~
Default                                  : Yes
Forced                                   : No

Audio #1
ID                                       : 2
Format                                   : E-AC-3
Format/Info                              : Enhanced Audio Coding 3
Codec ID                                 : A_EAC3
Duration                                 : 1 h 40 min
Bit rate mode                            : Constant
Bit rate                                 : 128 kb/s
Channel(s)                               : 2 channels
Channel positions                        : Front: L R
Sampling rate                            : 48.0 kHz
Frame rate                               : 187.500 FPS (256 SPF)
Compression mode                         : Lossy
Stream size                              : 91.6 MiB (11%)
Title                                    : ~Ranvijay~
Language                                 : Hindi
Service kind                             : Complete Main
Default                                  : Yes
Forced                                   : No

Audio #2
ID                                       : 3
Format                                   : AAC
Format/Info                              : Advanced Audio Codec
Format profile                           : LC
Codec ID                                 : A_AAC-2
Duration                                 : 1 h 40 min
Bit rate                                 : 93.7 kb/s
Channel(s)                               : 2 channels
Channel positions                        : Front: L R
Sampling rate                            : 48.0 kHz
Frame rate                               : 46.875 FPS (1024 SPF)
Compression mode                         : Lossy
Stream size                              : 67.1 MiB (8%)
Title                                    : ~Ranvijay~
Language                                 : English
Default                                  : No
Forced                                   : No

             
Category:Movies > Hollywood Dub
Lang:Hindi
Total Size:861.28 MB



|| Download This Movie Via Single Resumable Links Size: 845 MB ||

Direct-1 Google Drive | Direct-2 | Direct-3 |

Watch Online Click Here

Post a Comment

0 Comments