Comicstaan (2018) Hindi Complete S01 720p WEB-HD x264 AAC DD 2.0 ~ Phenomenal


Poster


iMDB
Imdb Picture Title: Comicstaan
Year: 2018
Language: English
Country: India
All Genres: Comedy
Plot Outline: Ten budding stand-up comedians shortlisted through a nationwide hunt compete to become India's next big comic sensation. They are mentored and judged for their performances by Tanmay, Biswa, Kanan, Kenny, Sapan, Kaneez and Naveen. Hosted by Abish and Sumukhi, watch Comicstaan to find out who gets crowned as the future competition to some of these big names in stand-up comedy.
Director: Khuzema Haveliwala
Khuzema Haveliwala
Writing By: Bhavesh Mehta,Adhiraj Singh,
Produced By: Glendon Anthony,Shweta Chavan,Riva Mendonca,Sneha Menon,Ajay Nair,Utsab Nath,Sneha Pandey,Rajlaxmi Pokale,Prashant Reddy,Harshita Sabnis,Saksham Sharma,Dhruv Sheth,Vikram Singh,Adit Tulsyan,Oml,
Cast:
Sejal Bhat as Herself 9 episodes, 2018
Tanmay Bhat as Judge 9 episodes, 2018
Shankar Chugani as Himself 9 episodes, 2018
Rahul Dua as Himself 9 episodes, 2018
Kanan Gill as Judge 9 episodes, 2018
Rueben Kaduskar as Himself 9 episodes, 2018
Shashwat Maheshwari as Himself 9 episodes, 2018
Abish Mathew as Himself - Host 9 episodes, 2018
Saurav Mehta as Himself 9 episodes, 2018
Aishwarya Mohanraj as Herself 9 episodes, 2018
Trailers:
Official "Comicstaan" Trailer
Official "Comicstaan" Teaser



Details
Name:Comicstaan (2018) Hindi Complete S01 720p WEB-HD x264 AAC DD 2.0 ~ Phenomenal
Description:
Comicstaan (2018) Hindi Complete S01 720p WEB-HD x264 AAC DD 2.0 ~ Phenomenal

Comicstaan-1.pngfit11072C735.png


Format                                   : MPEG-4
Format profile                           : Base Media
Codec ID                                 : isom (isom/iso2/avc1/mp41)
File size                                : 556 MiB
Duration                                 : 1 h 0 min
Overall bit rate                         : 1 292 kb/s

Video
ID                                       : 1
Format                                   : AVC
Format/Info                              : Advanced Video Codec
Format profile                           : Main@L3.1
Format settings                          : CABAC / 4 Ref Frames
Format settings, CABAC                   : Yes
Format settings, RefFrames               : 4 frames
Codec ID                                 : avc1
Codec ID/Info                            : Advanced Video Coding
Duration                                 : 1 h 0 min
Bit rate                                 : 1 124 kb/s
Width                                    : 1 280 pixels
Height                                   : 720 pixels
Display aspect ratio                     : 16:9
Frame rate mode                          : Constant
Frame rate                               : 30.000 FPS
Color space                              : YUV
Chroma subsampling                       : 4:2:0
Bit depth                                : 8 bits
Scan type                                : Progressive
Bits/(Pixel*Frame)                       : 0.041
Stream size                              : 484 MiB (87%)
Writing library                          : x264 core 148 r2708 86b7198
Color range                              : Limited
Color primaries                          : BT.709
Transfer characteristics                 : BT.709
Matrix coefficients                      : BT.709
Codec configuration box                  : avcC

Audio
ID                                       : 2
Format                                   : AAC LC
Format/Info                              : Advanced Audio Codec Low Complexity
Codec ID                                 : mp4a-40-2
Duration                                 : 1 h 0 min
Bit rate mode                            : Constant
Bit rate                                 : 160 kb/s
Channel(s)                               : 2 channels
Channel layout                           : L R
Sampling rate                            : 44.1 kHz
Frame rate                               : 43.066 FPS (1024 SPF)
Compression mode                         : Lossy
Stream size                              : 68.8 MiB (12%)
Language                                 : English
Default                                  : Yes
Alternate group                          : 1


  G5jOA.th.png G5DHm.th.png G5wX5.th.png G5lLR.th.png G5EEq.th.png G5tRe.th.png G5WxU.th.png G5bGn.th.png G5nPQ.th.png G5pfW.th.png G54Hr.th.png G53jh.th.png
Category:TV > WEB-HD
Lang:Hindi
Total Size:5.26 GB





|| Download This Tv Show Via Single Resumable Links Size: 5.26 GB ||

Direct-1 Google Drive | Direct-2 | Direct-3 |

Watch Online Click Here

Post a Comment

2 Comments