Eagle Eye (2008) BluRay 720p x264 {Dual Audio} [Hindi - English] - Hon3yHD


Poster


iMDB

Title: Eagle Eye
Year: 2008
Runtime: 118 minutes
Language: English
All Genres: Action, Mystery, Thriller
Tagline: Don't walk. Run.
Director: D.J. Caruso
Writing By: John Glenn,Travis Wright,Hillary Seitz,Dan McDermott,Dan McDermott,
Produced By: Peter Chiarelli,Patrick Crowley,James M. Freitag,Alex Kurtzman,Edward L. McDonnell,Rizelle Mendoza,Roberto Orci,Steven Spielberg,
Music: Brian Tyler
Cast:
Shia LaBeouf as Jerry Shaw
Michelle Monaghan as Rachel Holloman
Rosario Dawson as Zoe Perez
Michael Chiklis as Defense Secretary Callister
Anthony Mackie as Major William Bowman
Ethan Embry as Agent Toby Grant
Billy Bob Thornton as Agent Thomas Morgan
Anthony Azizi as Ranim Khalid
Cameron Boyce as Sam Holloman
Lynn Cohen as Mrs. Wierzbowski
Trailers:
Eagle Eye: Theatrical Trailer #1
Eagle Eye: Theatrical Trailer #2
Eagle Eye: Trailer #1



Details
Name:Eagle.Eye.2008.BluRay.720p.x264.{Dual.Audio}.[Hindi.Org-English].-.Hon3yHD
Description:
Eagle Eye (2008) BluRay 720p x264 {Dual Audio} [Hindi - English] - Hon3yHD



Format                      : Matroska
Format version              : Version 4 / Version 2
File size                   : 1.26 GiB
Duration                    : 1 h 58 min
Overall bit rate            : 1 528 kb/s

Video
ID                          : 1
Format                      : AVC
Format/Info                 : Advanced Video Codec
Format profile              : High@L4.1
Format settings             : CABAC / 8 Ref Frames
Format settings, CABAC      : Yes
Format settings, ReFrames   : 8 frames
Codec ID                    : V_MPEG4/ISO/AVC
Duration                    : 1 h 57 min
Bit rate                    : 1 200 kb/s
Width                       : 1 280 pixels
Height                      : 532 pixels
Display aspect ratio        : 2.40:1
Frame rate mode             : Constant
Frame rate                  : 23.976 (24000/1001) FPS

Audio #1
ID                          : 2
Format                      : AAC
Format/Info                 : Advanced Audio Codec
Format profile              : LC
Codec ID                    : A_AAC-2
Duration                    : 1 h 58 min
Bit rate                    : 159 kb/s
Channel(s)                  : 2 channels
Channel positions           : Front: L R
Sampling rate               : 48.0 kHz
Frame rate                  : 46.875 FPS (1024 SPF)
Compression mode            : Lossy
Delay relative to video     : 1 s 229 ms
Stream size                 : 135 MiB (10%)
Title                       : Stereo
Language                    : Hindi

Audio #2
ID                          : 3
Format                      : AAC
Format/Info                 : Advanced Audio Codec
Format profile              : LC
Codec ID                    : A_AAC-2
Duration                    : 1 h 57 min
Bit rate                    : 160 kb/s
Channel(s)                  : 2 channels
Channel positions           : Front: L R
Sampling rate               : 48.0 kHz
Frame rate                  : 46.875 FPS (1024 SPF)
Compression mode            : Lossy
Delay relative to video     : -21 ms
Stream size                 : 135 MiB (10%)
Title                       : Stereo
Language                    : English

 
Category:Movies > Hollywood Dub
Lang:Hindi
Total Size:1.26 GB



|| Download This Movie Via Single Resumable Links Size: 1.26 GB ||

Direct-1 Google Drive | Direct-2 | Direct-3 |

Watch Online Click Here

Post a Comment

0 Comments