Elizabeth (1998) BluRay 720p x264 {Dual Audio} [Hindi - English] - Hon3yHD


Poster


iMDB
Imdb Picture Title: Elizabeth
Year: 1998
Runtime: 124 minutes
Votes: 82820
Rating: 7.5/10
Language: English, French
Country: UK
All Genres: Biography, Drama, History
Plot Outline: This film details the ascension to the throne and the early reign of Queen Elizabeth the First, as played by Cate Blanchett. The main focus is the endless attempts by her council to marry her off, the Catholic hatred of her and her romance with Lord Robert Dudley. Written by CharmedGirl47
Tagline: Absolute power demands absolute loyalty.
Director: Shekhar Kapur
Writing By: Michael Hirst,
Produced By: Tim Bevan,Liza Chasin,Eric Fellner,Debra Hayward,Alison Owen,Mary Richards,
Music: David Hirschfelder
Cast:
Cate Blanchett as Elizabeth I
Geoffrey Rush as Sir Francis Walsingham
Christopher Eccleston as Duke of Norfolk
Joseph Fiennes as Robert Dudley, Earl of Leicester
Richard Attenborough as Sir William Cecil
Fanny Ardant as Mary of Guise
Eric Cantona as Monsieur de Foix
Vincent Cassel as Duc d'Anjou
Kathy Burke as Queen Mary Tudor
Edward Hardwicke as Earl of Arundel
Trailers:
Elizabeth



Details
Name:Elizabeth.1998.BluRay.720p.x264.{Dual.Audio}.[Hindi Org-English].-.Hon3yHD
Description:
Elizabeth.1998.BluRay.720p.x264.{Dual.Audio}.[Hindi Org-English].-.Hon3yHD

Format                      : Matroska
Format version              : Version 4 / Version 2
File size                   : 1.32 GiB
Duration                    : 2 h 3 min
Overall bit rate            : 1 530 kb/s

Video
ID                          : 1
Format                      : AVC
Format/Info                 : Advanced Video Codec
Format profile              : High@L4.1
Format settings             : CABAC / 8 Ref Frames
Format settings, CABAC      : Yes
Format settings, ReFrames   : 8 frames
Codec ID                    : V_MPEG4/ISO/AVC
Duration                    : 2 h 3 min
Bit rate                    : 1 200 kb/s
Width                       : 1 280 pixels
Height                      : 692 pixels
Display aspect ratio        : 1.85:1
Frame rate mode             : Constant
Frame rate                  : 23.976 (24000/1001) FPS

Audio #1
ID                          : 2
Format                      : AAC
Format/Info                 : Advanced Audio Codec
Format profile              : LC
Codec ID                    : A_AAC-2
Duration                    : 2 h 3 min
Bit rate                    : 160 kb/s
Channel(s)                  : 2 channels
Channel positions           : Front: L R
Sampling rate               : 48.0 kHz
Frame rate                  : 46.875 FPS (1024 SPF)
Compression mode            : Lossy
Delay relative to video     : 1 s 79 ms
Stream size                 : 141 MiB (10%)
Title                       : Stereo
Language                    : Hindi

Audio #2
ID                          : 3
Format                      : AAC
Format/Info                 : Advanced Audio Codec
Format profile              : LC
Codec ID                    : A_AAC-2
Duration                    : 2 h 3 min
Bit rate                    : 160 kb/s
Channel(s)                  : 2 channels
Channel positions           : Front: L R
Sampling rate               : 48.0 kHz
Stream size                 : 141 MiB (10%)
Title                       : Stereo
Language                    : English

       
Category:Movies > Hollywood Dub
Lang:Hindi
Total Size:1.32 GB



|| Download This Movie Via Single Resumable Links Size: 1.05 GB ||

Direct-1 Google Drive | Direct-2 | Direct-3 |

Watch Online Click Here

Post a Comment

0 Comments