Enter The Dragon (1973) BluRay 720p x264 {Dual Audio} [Hindi - English] - Hon3yHD


Poster


iMDB
Imdb Picture Original Title: Enter the Dragon
Title: Opération dragon
Year: 1973
Runtime: 102 minutes
Votes: 85388
Rating: 7.7/10
Language: English, Cantonese
Country: Hong Kong, USA
All Genres: Action, Crime, Drama, Thriller
Plot Outline: Enter the Dragon revolves around 3 main characters; Lee, a man recruited by an agency to investigate a tournament hosted by Han, since they believe he has an Opium trade there. Roper and Williams are former army buddies since Vietnam and they enter the tournament due to different problems that they have. It's a deadly tournament they will enter on an island. Lee's job is to get the other 2 out of there alive. Written by Emphinix
Tagline: The ultimate in Martial Arts adventure and excitement!
Director: Robert Clouse
Writing By: Michael Allin,
Produced By: Raymond Chow,Paul M. Heller,Fred Weintraub,Leonard Ho,Bruce Lee,Andre Morgan,
Music: Lalo Schifrin
Cast:
Bruce Lee as Lee
John Saxon as Roper
Jim Kelly as Williams
Ahna Capri as Tania
Kien Shih as Han
Robert Wall as Oharra
Angela Mao as Su Lin (Guest star)
Betty Chung as Mei Ling
Geoffrey Weeks as Braithwaite
Bolo Yeung as Bolo
Trailers:
Enter the Dragon



Details
Name:Enter.The.Dragon.1973.BluRay.720p.x264.{Dual.Audio}.[Hindi Org-English].-.Hon3yHD
Description:
Enter.The.Dragon.1973.BluRay.720p.x264.{Dual.Audio}.[Hindi Org-English].-.Hon3yHD


Format                      : Matroska
Format version              : Version 4 / Version 2
File size                   : 1.05 GiB
Duration                    : 1 h 42 min
Overall bit rate            : 1 465 kb/s
Movie name                  : Hammer@Hon3yHD

Video
ID                          : 1
Format                      : AVC
Format/Info                 : Advanced Video Codec
Format profile              : High@L4.1
Format settings             : CABAC / 8 Ref Frames
Format settings, CABAC      : Yes
Format settings, ReFrames   : 8 frames
Codec ID                    : V_MPEG4/ISO/AVC
Duration                    : 1 h 42 min
Bit rate                    : 1 200 kb/s
Width                       : 1 280 pixels
Height                      : 532 pixels
Display aspect ratio        : 2.40:1
Frame rate mode             : Constant
Frame rate                  : 23.976 (24000/1001) FPS

Audio #1
ID                          : 2
Format                      : AAC
Format/Info                 : Advanced Audio Codec
Format profile              : LC
Codec ID                    : A_AAC-2
Duration                    : 1 h 42 min
Bit rate                    : 128 kb/s
Channel(s)                  : 2 channels
Channel positions           : Front: L R
Sampling rate               : 48.0 kHz
Frame rate                  : 46.875 FPS (1024 SPF)
Compression mode            : Lossy
Delay relative to video     : -21 ms
Stream size                 : 94.1 MiB (9%)
Title                       : Stereo
Language                    : Hindi

Audio #2
ID                          : 3
Format                      : AAC
Format/Info                 : Advanced Audio Codec
Format profile              : LC
Codec ID                    : A_AAC-2
Duration                    : 1 h 42 min
Bit rate                    : 128 kb/s
Channel(s)                  : 2 channels
Channel positions           : Front: L R
Sampling rate               : 48.0 kHz
Frame rate                  : 46.875 FPS (1024 SPF)
Compression mode            : Lossy
Delay relative to video     : -21 ms
Stream size                 : 94.0 MiB (9%)
Title                       : Stereo
Language                    : English

       
Category:Movies > Hollywood Dub
Lang:Hindi
Total Size:1.05 GB



|| Download This Movie Via Single Resumable Links Size: 1.05 GB ||

Direct-1 Google Drive | Direct-2 | Direct-3 |

Watch Online Click Here

Post a Comment

0 Comments