Friday the 13th (2009) Theatrical Cut BluRay 720p x264 Dual Audio [Hindi DD2.0 - English DD5.1] - Esub ~ Ranvijay


Poster


iMDB
Title: Friday the 13th
Year: 1980
Runtime: 95 minutes
Votes: 99528
Rating: 6.5/10
Language: English
All Genres: Horror, Mystery, Thriller
Tagline: You may only see it once, but that will be enough.
Director: Sean S. Cunningham
Writing By: Victor Miller,Sean S. Cunningham,Ron Kurz,Victor Miller,
Produced By: Sean S. Cunningham,Alvin Geiler,Steve Miner,
Music: Harry Manfredini
Cast:
Betsy Palmer as Mrs. Voorhees
Adrienne King as Alice
Jeannine Taylor as Marcie
Robbi Morgan as Annie
Kevin Bacon as Jack
Harry Crosby as Bill
Laurie Bartram as Brenda
Mark Nelson as Ned
Peter Brouwer as Steve Christy
Rex Everhart as The Truck Driver



Details
Name:Friday the 13th [Theatrical Cut] (2009) 720p BluRay x264 Dual Audio [Hindi DD2.0 - English DD5....
Description:
Friday the 13th [Theatrical Cut] (2009) 720p BluRay x264 Dual Audio [Hindi DD2.0 - English DD5.1] - Esub ~ Ranvijay



Thanks To The Punisher For Hindi Audio


General
Format                                   : Matroska
Format version                           : Version 4 / Version 2
File size                                : 1.31 GiB
Duration                                 : 1 h 37 min
Overall bit rate                         : 1 926 kb/s
Movie name                               : Friday the 13th [Theatrical Cut] (2009) 720p BluRay x264 Dual Audio [Hindi DD2.0 - English DD5.1] - Esub ~ Ranvijay

Video
ID                                       : 1
Format                                   : AVC
Format/Info                              : Advanced Video Codec
Duration                                 : 1 h 37 min
Bit rate                                 : 1 500 kb/s
Width                                    : 1 280 pixels
Height                                   : 534 pixels
Display aspect ratio                     : 2.40:1
Original display aspect ratio            : 2.40:1
Frame rate mode                          : Constant
Frame rate                               : 23.976 (24000/1001) FPS
Color space                              : YUV
Chroma subsampling                       : 4:2:0
Bit depth                                : 8 bits
Scan type                                : Progressive
Bits/(Pixel*Frame)                       : 0.092
Stream size                              : 1.02 GiB (78%)
Title                                    : ~Ranvijay~

Audio #1
ID                                       : 2
Format                                   : AAC
Format/Info                              : Advanced Audio Codec
Format profile                           : LC
Codec ID                                 : A_AAC-2
Duration                                 : 1 h 37 min
Bit rate                                 : 192 kb/s
Channel(s)                               : 2 channels
Channel positions                        : Front: L R
Sampling rate                            : 48.0 kHz
Frame rate                               : 46.875 FPS (1024 SPF)
Compression mode                         : Lossy
Delay relative to video                  : 1 s 500 ms
Stream size                              : 133 MiB (10%)
Title                                    : ~Ranvijay~
Language                                 : Hindi
Default                                  : Yes
Forced                                   : Yes

Audio #2
ID                                       : 3
Format                                   : AC-3
Format/Info                              : Audio Coding 3
Codec ID                                 : A_AC3
Duration                                 : 1 h 37 min
Bit rate mode                            : Constant
Bit rate                                 : 224 kb/s
Channel(s)                               : 6 channels
Channel positions                        : Front: L C R, Side: L R, LFE
Sampling rate                            : 48.0 kHz
Frame rate                               : 31.250 FPS (1536 SPF)
Bit depth                                : 16 bits
Compression mode                         : Lossy
Stream size                              : 156 MiB (12%)
Title                                    : ~Ranvijay~
Language                                 : English
Service kind                             : Complete Main
Default                                  : No
Forced                                   : No

Text
ID                                       : 4
Format                                   : PGS
Muxing mode                              : zlib
Codec ID                                 : S_HDMV/PGS
Codec ID/Info                            : Picture based subtitle format used on BDs/HD-DVDs
Duration                                 : 1 h 28 min
Bit rate                                 : 27.7 kb/s
Count of elements                        : 1750
Stream size                              : 17.5 MiB (1%)
Title                                    : ~Ranvijay~
Language                                 : English
Default                                  : Yes
Forced                                   : Yes



fa3725eb89bd221ebee17ce70e1ebde2.th.jpg 377ca48c5934626daddb2783be1a02bc.th.jpg 93908e547f18bff9f95a05327617d80b.th.jpg efd8f00e8dee081eb9491a5860816bf8.th.jpg d7287a3a0c31b2daa0c27ca82c396cec.th.jpg 9f263787cc71390a0ecdd4e7bb9e2b9c.th.jpg 288b4faa867af60a64a5a3d61f60d365.th.jpg 710009c4a8c08f38b074c79a082769f2.th.jpg 805126f8c6604a02e311d04cedeaaffb.th.jpg 513cd8c602999ef310a0c99587bb8006.th.jpg 505a0ca0806c26ff0f641d46510a4d6a.th.jpg 4f47e5f1d08ed86ba2b1bebc3d5e4bc6.th.jpg
Category:Movies > Bollywood
Lang:Hindi
Total Size:1.33 GB



|| Download This Movie Via Single Resumable Links Size: 1.31 GB ||

Direct-1 Google Drive | Direct-2 | Direct-3 |

Watch Online Click Here

Post a Comment

0 Comments