Fullmetal Alchemist: The Sacred Star of Milos (2011) Hindi Dub 720p BluRay x264 AAC ~Badur


Poster


iMDB
Original Title: Hagane no renkinjutsushi: Mirosu no seinaru hoshi
Title: Fullmetal Alchemist: The Sacred Star of Milos
Year: 2011
Runtime: 110 minutes
Language: Japanese
All Genres: Animation, Action, Adventure, Fantasy, Sci-Fi
Tagline: Finally tell the story of forbidden bonds
Director: Kazuya Murata
Writing By: Hiromu Arakawa,Yûichi Shinbo,John Burgmeier,Bonny Clinkenbeard,
Produced By: Justin Cook,Gen Fukunaga,Shin Furukawa,Michael Harcourt,Carly Hunter,Nobuyuki Kurashige,Hirô Maruyama,Mike McFarland,Masahiko Minami,Arimasa Okada,Fumi Teranishi,Ryo Ôyama,
Music: Tarô Iwashiro
Cast:
Vic Mignogna as Edward Elric
Maxey Whitehead as Alphonse Elric
Alexis Tipton as Julia Crichton
Matthew Mercer as Melvin Voyager / Atlas
Shelley Calene-Black as Miranda
Patrick Seitz as Lt. Colonel Herschel / Ashleigh Crichton
Travis Willingham as Roy Mustang
Christopher Corey Smith as Peter Soyuz
Elias Taylorson as Vatanen
Bruce DuBose as Gonzales
Trailers:
U.S. Version

 
 

Details
Name:Fullmetal Alchemist: The Sacred Star of Milos (2011) Hindi Dub 720p BluRay x264 AAC ~Badur
Description:
Fullmetal Alchemist: The Sacred Star of Milos (2011) Hindi Dub 720p BluRay x264 AAC ~Badur
 

Format                                   : MPEG-4
Format profile                           : Base Media / Version 2
Codec ID                                 : mp42 (isom/iso2/avc1/mp41)
File size                                : 658 MiB
Duration                                 : 1 h 50 min
Overall bit rate mode                    : Variable
Overall bit rate                         : 830 kb/s
Encoded date                             : UTC 2018-08-28 21:11:07
Tagged date                              : UTC 2018-08-28 21:11:07
Writing application                      : HandBrake 0.10.5 2016021100

Video
ID                                       : 1
Format                                   : AVC
Format/Info                              : Advanced Video Codec
Format profile                           : Main@L4
Format settings                          : CABAC / 4 Ref Frames
Format settings, CABAC                   : Yes
Format settings, ReFrames                : 4 frames
Codec ID                                 : avc1
Codec ID/Info                            : Advanced Video Coding
Duration                                 : 1 h 50 min
Bit rate                                 : 663 kb/s
Width                                    : 1 280 pixels
Height                                   : 720 pixels
Display aspect ratio                     : 16:9
Frame rate mode                          : Variable
Frame rate                               : 23.000 FPS
Minimum frame rate                       : 22.727 FPS
Maximum frame rate                       : 23.256 FPS
Color space                              : YUV
Chroma subsampling                       : 4:2:0
Bit depth                                : 8 bits
Scan type                                : Progressive
Bits/(Pixel*Frame)                       : 0.031
Stream size                              : 525 MiB (80%)
Writing library                          : x264 core 142 r2479 dd79a61
Encoded date                             : UTC 2018-08-28 21:11:07
Tagged date                              : UTC 2018-08-28 21:11:07
Color range                              : Limited
Color primaries                          : BT.709
Transfer characteristics                 : BT.709
Matrix coefficients                      : BT.709

Audio
ID                                       : 2
Format                                   : AAC
Format/Info                              : Advanced Audio Codec
Format profile                           : LC
Codec ID                                 : mp4a-40-2
Duration                                 : 1 h 50 min
Bit rate mode                            : Variable
Bit rate                                 : 159 kb/s
Channel(s)                               : 2 channels
Channel positions                        : Front: L R
Sampling rate                            : 44.1 kHz
Frame rate                               : 43.066 FPS (1024 SPF)
Compression mode                         : Lossy
Stream size                              : 126 MiB (19%)
Title                                    : Stereo / Stereo
Default                                  : Yes
Alternate group                          : 1
Encoded date                             : UTC 2018-08-28 21:11:07
Tagged date                              : UTC 2018-08-28 21:11:07


d3f1de4d86779c11d3bc910115b6a2cc.jpg
Category:Movies > Hollywood Dub
Lang:Hindi
Total Size:657.65 MB





|| Download This Movie Via Single Resumable Links Size: 658 MB ||

Direct-1 Google Drive | Direct-2 | Direct-3 |

Watch Online Click Here

Post a Comment

0 Comments