Fun with Dick and Jane (2005) BluRay 720p x264 {Dual Audio} [Hindi Org-English] - Hon3yHD


Poster



iMDB
Imdb Picture Title: Fun with Dick and Jane
Year: 2005
Runtime: 90 minutes
Votes: 119415
Rating: 6.1/10
Language: English, Spanish
Country: USA
All Genres: Comedy, Crime
Plot Outline: When an affluent couple lose all their money following a series of blunders, they turn to a life of crime to make ends meet.
Tagline: This Christmas, one family is living the American Dream a little differently
Director: Dean Parisot
Writing By: Judd Apatow,Nicholas Stoller,Gerald Gaiser,Judd Apatow,Nicholas Stoller,Gerald Gaiser,David Giler,Jerry Belson,Mordecai Richler,
Produced By: Peter Bart,Jane Bartelme,Jim Carrey,Ashley Fardys,Linda Fields,Brian Grazer,Max Palevsky,Kim Roth,
Music: Theodore Shapiro
Cast:
Jim Carrey as Dick Harper
Téa Leoni as Jane Harper
Alec Baldwin as Jack McCallister
Richard Jenkins as Frank Bascombe
Angie Harmon as Veronica Cleeman
John Michael Higgins as Garth
Richard Burgi as Joe Cleeman
Carlos Jacott as Oz Peterson
Aaron Michael Drozin as Billy Harper
Gloria Garayua as Blanca
Trailers:
Fun with Dick and Jane
Fun with Dick and Jane



Details
Name:Fun.with.Dick.and.Jane.2005.BluRay.720p.x264.{Dual.Audio}.[Hindi Org-English].-.Hon3yHD
Description:
Fun with Dick and Jane (2005) BluRay 720p x264 {Dual Audio} [Hindi Org-English] - Hon3yHD


Format                      : Matroska
Format version              : Version 4 / Version 2
File size                   : 942 MiB
Duration                    : 1 h 30 min
Overall bit rate            : 1 459 kb/s
Movie name                  : ~Hammer~

Video
ID                          : 1
Format                      : AVC
Format/Info                 : Advanced Video Codec
Format profile              : High@L4.1
Format settings             : CABAC / 8 Ref Frames
Format settings, CABAC      : Yes
Format settings, ReFrames   : 8 frames
Codec ID                    : V_MPEG4/ISO/AVC
Duration                    : 1 h 30 min
Bit rate                    : 1 200 kb/s
Width                       : 1 280 pixels
Height                      : 720 pixels
Display aspect ratio        : 16:9
Frame rate mode             : Constant
Frame rate                  : 23.976 (24000/1001) FPS

Audio #1
ID                          : 2
Format                      : AAC
Format/Info                 : Advanced Audio Codec
Format profile              : LC
Codec ID                    : A_AAC-2
Duration                    : 1 h 30 min
Bit rate                    : 128 kb/s
Channel(s)                  : 2 channels
Channel positions           : Front: L R
Sampling rate               : 48.0 kHz
Frame rate                  : 46.875 FPS (1024 SPF)
Compression mode            : Lossy
Delay relative to video     : -21 ms
Stream size                 : 82.8 MiB (9%)
Title                       : Stereo
Language                    : English

Audio #2
ID                          : 3
Format                      : AAC
Format/Info                 : Advanced Audio Codec
Format profile              : LC
Codec ID                    : A_AAC-2
Duration                    : 1 h 30 min
Bit rate                    : 128 kb/s
Channel(s)                  : 2 channels
Channel positions           : Front: L R
Sampling rate               : 48.0 kHz
Frame rate                  : 46.875 FPS (1024 SPF)
Compression mode            : Lossy
Delay relative to video     : -21 ms
Stream size                 : 82.8 MiB (9%)
Title                       : Stereo
Language                    : Hindi

       
Category:Movies > Hollywood Dub
Lang:Hindi
Total Size:942.57 MB



|| Download This Movie Via Single Resumable Links Size: 943 MB ||

Direct-1 Google Drive | Direct-2 | Direct-3 |

Watch Online Click Here

Post a Comment

0 Comments