Game of Thrones S02E01 BluRay 720p x264 Dual Audio [Hindi + English] Msub 433MB [Khiladi786]


Poster



iMDB
Title: "Game of Thrones" The North Remembers
Year: 2012
Runtime: 53 minutes
Language: English
All Genres: Action, Adventure, Drama, Fantasy, Romance
Director: Alan Taylor
Writing By: George R.R. Martin,David Benioff,D.B. Weiss,David Benioff,D.B. Weiss,
Produced By: David Benioff,Jonathan Brytus,Oliver Butler,Guymon Casady,Bernadette Caulfield,Frank Doelger,Vince Gerardis,George R.R. Martin,Lisa McAtackney,Erika Milutin,Christopher Newman,Greg Spence,Carolyn Strauss,Alan Taylor,Vanessa Taylor,D.B. Weiss,
Music: Ramin Djawadi
Cast:
Peter Dinklage as Tyrion Lannister
Lena Headey as Cersei Lannister
Nikolaj Coster-Waldau as Jaime Lannister
Michelle Fairley as Catelyn Stark
Emilia Clarke as Daenerys Targaryen
Aidan Gillen as Petyr 'Littlefinger' Baelish
Iain Glen as Jorah Mormont
Kit Harington as Jon Snow
Liam Cunningham as Davos Seaworth
Isaac Hempstead Wright as Bran Stark



Details
Name:Game of Thrones S02E01 BluRay 720p x264 Dual Audio [Hindi + English] Msub 437MB [Khiladi786]
Description:
Game of Thrones S02E01 BluRay 720p x264 Dual Audio [Hindi + English] Msub 437MB [Khiladi786]

Show Has 18 + Scenes ... Mind It...





 

Format                                   : Matroska
Format version                           : Version 4 / Version 2
File size                                : 433 MiB
Duration                                 : 52 min 41 s
Overall bit rate                         : 1 148 kb/s
Movie name                               : S02E01 - The North Remember

Video
ID                                       : 1
Format                                   : AVC
Format/Info                              : Advanced Video Codec
Format profile                           : High@L4.1
Format settings                          : CABAC / 8 Ref Frames
Format settings, CABAC                   : Yes
Format settings, ReFrames                : 8 frames
Codec ID                                 : V_MPEG4/ISO/AVC
Duration                                 : 52 min 41 s
Bit rate                                 : 874 kb/s
Width                                    : 1 280 pixels
Height                                   : 720 pixels
Display aspect ratio                     : 16:9
Frame rate mode                          : Constant
Frame rate                               : 23.976 (24000/1001) FPS
Color space                              : YUV
Chroma subsampling                       : 4:2:0
Bit depth                                : 8 bits
Scan type                                : Progressive
Bits/(Pixel*Frame)                       : 0.040
Stream size                              : 329 MiB (76%)
Writing library                          : x264 core 146 r2538 121396c
Language                                 : English
Default                                  : Yes
Forced                                   : No

Audio #1
ID                                       : 2
Format                                   : AAC
Format/Info                              : Advanced Audio Codec
Format profile                           : LC
Codec ID                                 : A_AAC-2
Duration                                 : 52 min 36 s
Bit rate                                 : 132 kb/s
Channel(s)                               : 2 channels
Channel positions                        : Front: L R
Sampling rate                            : 48.0 kHz
Frame rate                               : 46.875 FPS (1024 SPF)
Compression mode                         : Lossy
Stream size                              : 48.8 MiB (11%)
Language                                 : Hindi
Default                                  : Yes
Forced                                   : Yes

Audio #2
ID                                       : 3
Format                                   : AAC
Format/Info                              : Advanced Audio Codec
Format profile                           : LC
Codec ID                                 : A_AAC-2
Duration                                 : 52 min 41 s
Bit rate                                 : 140 kb/s
Channel(s)                               : 2 channels
Channel positions                        : Front: L R
Sampling rate                            : 48.0 kHz
Frame rate                               : 46.875 FPS (1024 SPF)
Compression mode                         : Lossy
Delay relative to video                  : 9 ms
Stream size                              : 52.8 MiB (12%)
Language                                 : English
Default                                  : No
Forced                                   : No

Text #1
ID                                       : 4
Format                                   : UTF-8
Codec ID                                 : S_TEXT/UTF8
Codec ID/Info                            : UTF-8 Plain Text
Duration                                 : 50 min 48 s
Bit rate                                 : 68 b/s
Count of elements                        : 741
Stream size                              : 25.5 KiB (0%)
Language                                 : English
Default                                  : Yes
Forced                                   : Yes

Text #2
ID                                       : 5
Format                                   : UTF-8
Codec ID                                 : S_TEXT/UTF8
Codec ID/Info                            : UTF-8 Plain Text
Duration                                 : 48 min 35 s
Bit rate                                 : 72 b/s
Count of elements                        : 697
Stream size                              : 25.8 KiB (0%)
Language                                 : Dutch
Default                                  : No
Forced                                   : No

Text #3
ID                                       : 6
Format                                   : UTF-8
Codec ID                                 : S_TEXT/UTF8
Codec ID/Info                            : UTF-8 Plain Text
Duration                                 : 44 s 127 ms
Bit rate                                 : 67 b/s
Count of elements                        : 7
Stream size                              : 373 Bytes (0%)
Language                                 : English
Default                                  : No
Forced                                   : No

Text #4
ID                                       : 7
Format                                   : UTF-8
Codec ID                                 : S_TEXT/UTF8
Codec ID/Info                            : UTF-8 Plain Text
Duration                                 : 48 min 52 s
Bit rate                                 : 70 b/s
Count of elements                        : 740
Stream size                              : 25.3 KiB (0%)
Language                                 : English
Default                                  : Yes
Forced                                   : No

Text #5
ID                                       : 8
Format                                   : UTF-8
Codec ID                                 : S_TEXT/UTF8
Codec ID/Info                            : UTF-8 Plain Text
Duration                                 : 48 min 35 s
Bit rate                                 : 72 b/s
Count of elements                        : 697
Stream size                              : 25.7 KiB (0%)
Language                                 : French
Default                                  : No
Forced                                   : No

Text #6
ID                                       : 9
Format                                   : UTF-8
Codec ID                                 : S_TEXT/UTF8
Codec ID/Info                            : UTF-8 Plain Text
Duration                                 : 48 min 35 s
Bit rate                                 : 72 b/s
Count of elements                        : 697
Stream size                              : 25.7 KiB (0%)
Language                                 : Spanish
Default                                  : No
Forced                                   : No

Menu
00:00:00.000                             : en:00:00:00.000
00:01:54.531                             : en:00:01:54.531
00:10:16.157                             : en:00:10:16.157
00:18:15.511                             : en:00:18:15.511
00:24:27.216                             : en:00:24:27.216
00:31:39.689                             : en:00:31:39.689
00:41:03.670                             : en:00:41:03.670
00:51:21.704                             : en:00:51:21.704

[HBO ORG HINDI DUB]

Special Thanks To Khiladi786 For Hindi Audio
Please Note : 18+ Scene Is synced with English Audio

ScreenShots

             
Category:TV > WEB-HD
Lang:Hindi
Total Size:437.96 MB



|| Download This Tv Show Via Single Resumable Links Size: 433 MB ||

Direct-1 Google Drive | Direct-2 | Direct-3 |

Watch Online Click Here

Post a Comment

0 Comments