Game of Thrones S02E04 BluRay 720p x264 Dual Audio [Hindi + English] Esub 422MB [Khiladi786]


Poster


iMDB
Title: "Game of Thrones" Garden of Bones
Year: 2012
Runtime: 51 minutes
Votes: 15713
Rating: 8.9/10
Language: English
All Genres: Action, Adventure, Drama
Director: David Petrarca
Writing By: George R.R. Martin,David Benioff,D.B. Weiss,Vanessa Taylor,
Produced By: David Benioff,Jonathan Brytus,Oliver Butler,Guymon Casady,Bernadette Caulfield,Frank Doelger,Vince Gerardis,George R.R. Martin,Lisa McAtackney,Erika Milutin,Christopher Newman,Greg Spence,Carolyn Strauss,Alan Taylor,Vanessa Taylor,D.B. Weiss,
Music: Ramin Djawadi
Cast:
Peter Dinklage as Tyrion Lannister
Michelle Fairley as Catelyn Stark
Emilia Clarke as Daenerys Targaryen
Aidan Gillen as Petyr 'Littlefinger' Baelish
Iain Glen as Jorah Mormont
Charles Dance as Tywin Lannister
Liam Cunningham as Davos Seaworth
Jack Gleeson as Joffrey Baratheon
Richard Madden as Robb Stark
Sophie Turner as Sansa Stark



Details
Name:Game of Thrones S02E04 BluRay 720p x264 Dual Audio [Hindi + English] Esub 422MB [Khiladi786]
Description:
Game of Thrones S02E04 BluRay 720p x264 Dual Audio [Hindi + English] Esub 422MB [Khiladi786]

Show Has 18 + Scenes ... Mind It...





 


Format                                   : Matroska
Format version                           : Version 4 / Version 2
File size                                : 422 MiB
Duration                                 : 50 min 41 s
Overall bit rate                         : 1 165 kb/s
Movie name                               : Game of Thrones S02 BluRay

Video
ID                                       : 1
Format                                   : AVC
Format/Info                              : Advanced Video Codec
Format profile                           : High@L4.1
Format settings                          : CABAC / 8 Ref Frames
Format settings, CABAC                   : Yes
Format settings, ReFrames                : 8 frames
Codec ID                                 : V_MPEG4/ISO/AVC
Duration                                 : 50 min 40 s
Bit rate                                 : 891 kb/s
Width                                    : 1 280 pixels
Height                                   : 720 pixels
Display aspect ratio                     : 16:9
Frame rate mode                          : Constant
Frame rate                               : 23.976 (24000/1001) FPS
Color space                              : YUV
Chroma subsampling                       : 4:2:0
Bit depth                                : 8 bits
Scan type                                : Progressive
Bits/(Pixel*Frame)                       : 0.040
Stream size                              : 323 MiB (77%)
Writing library                          : x264 core 146 r2538 121396c
Language                                 : English
Default                                  : Yes
Forced                                   : No

Audio #1
ID                                       : 2
Format                                   : AAC
Format/Info                              : Advanced Audio Codec
Format profile                           : LC
Codec ID                                 : A_AAC-2
Duration                                 : 50 min 36 s
Bit rate                                 : 132 kb/s
Channel(s)                               : 2 channels
Channel positions                        : Front: L R
Sampling rate                            : 48.0 kHz
Frame rate                               : 46.875 FPS (1024 SPF)
Compression mode                         : Lossy
Stream size                              : 47.0 MiB (11%)
Language                                 : Hindi
Default                                  : Yes
Forced                                   : Yes

Audio #2
ID                                       : 3
Format                                   : AAC
Format/Info                              : Advanced Audio Codec
Format profile                           : LC
Codec ID                                 : A_AAC-2
Duration                                 : 50 min 41 s
Bit rate                                 : 141 kb/s
Channel(s)                               : 2 channels
Channel positions                        : Front: L R
Sampling rate                            : 48.0 kHz
Frame rate                               : 46.875 FPS (1024 SPF)
Compression mode                         : Lossy
Delay relative to video                  : 9 ms
Stream size                              : 51.0 MiB (12%)
Language                                 : English
Default                                  : No
Forced                                   : No

Text
ID                                       : 4
Format                                   : UTF-8
Codec ID                                 : S_TEXT/UTF8
Codec ID/Info                            : UTF-8 Plain Text
Duration                                 : 48 min 3 s
Bit rate                                 : 63 b/s
Count of elements                        : 681
Stream size                              : 22.2 KiB (0%)
Language                                 : English
Default                                  : Yes
Forced                                   : Yes

Menu
00:00:00.000                             : en:00:00:00.000
00:01:53.739                             : en:00:01:53.739
00:11:05.248                             : en:00:11:05.248
00:18:37.658                             : en:00:18:37.658
00:25:47.212                             : en:00:25:47.212
00:32:01.253                             : en:00:32:01.253
00:39:50.680                             : en:00:39:50.680
00:49:21.375                             : en:00:49:21.375


[HBO ORG HINDI DUB]

Special Thanks To Khiladi786 For Hindi Audio
Please Note : 18+ Scene Is synced with English Audio

ScreenShots

           
Category:Movies > Hollywood Dub
Lang:Hindi
Total Size:422.42 MB



|| Download This Tv Show Via Single Resumable Links Size: 422 MB ||

Direct-1 Google Drive | Direct-2 | Direct-3 |

Watch Online Click Here

Post a Comment

0 Comments