Game of Thrones S02E05 BluRay 720p x264 [Hindi Subbed + English] Esub 448MB [Khiladi786]


Poster


iMDB
Title: "Game of Thrones" The Ghost of Harrenhal
Year: 2012
Runtime: 55 minutes
Votes: 15902
Rating: 8.9/10
Language: English
Director: David Petrarca
Writing By: George R.R. Martin,David Benioff,D.B. Weiss,David Benioff,D.B. Weiss,
Produced By: David Benioff,Jonathan Brytus,Oliver Butler,Guymon Casady,Bernadette Caulfield,Frank Doelger,Vince Gerardis,George R.R. Martin,Lisa McAtackney,Erika Milutin,Christopher Newman,Greg Spence,Carolyn Strauss,Alan Taylor,Vanessa Taylor,D.B. Weiss,Snorri ├×├│risson,
Music: Ramin Djawadi
Cast:
Peter Dinklage as Tyrion Lannister
Lena Headey as Cersei Lannister
Michelle Fairley as Catelyn Stark
Emilia Clarke as Daenerys Targaryen
Aidan Gillen as Petyr 'Littlefinger' Baelish
Iain Glen as Jorah Mormont
Kit Harington as Jon Snow
Charles Dance as Tywin Lannister
Liam Cunningham as Davos Seaworth
Alfie Allen as Theon Greyjoy



Details
Name: Game of Thrones S02E05 BluRay 720p x264 [Hindi Subbed + English] Esub 448MB [Khiladi786]
Description:
 Game of Thrones S02E05 BluRay 720p x264 [Hindi Subbed + English] Esub 448MB [Khiladi786] 

Show Has 18 + Scenes ... Mind It...





73f8d2f74e4f068ff93008c68ae99b26.jpg

Format                                   : Matroska
Format version                           : Version 4 / Version 2
File size                                : 448 MiB
Duration                                 : 54 min 10 s
Overall bit rate                         : 1 156 kb/s

Video
ID                                       : 1
Format                                   : AVC
Format/Info                              : Advanced Video Codec
Format profile                           : High@L4.1
Format settings                          : CABAC / 8 Ref Frames
Format settings, CABAC                   : Yes
Format settings, ReFrames                : 8 frames
Codec ID                                 : V_MPEG4/ISO/AVC
Duration                                 : 54 min 10 s
Bit rate                                 : 1 013 kb/s
Width                                    : 1 280 pixels
Height                                   : 720 pixels
Display aspect ratio                     : 16:9
Frame rate mode                          : Constant
Frame rate                               : 23.976 (24000/1001) FPS
Color space                              : YUV
Chroma subsampling                       : 4:2:0
Bit depth                                : 8 bits
Scan type                                : Progressive
Bits/(Pixel*Frame)                       : 0.046
Stream size                              : 392 MiB (88%)
Writing library                          : x264 core 146 r2538 121396c
Language                                 : English
Default                                  : Yes
Forced                                   : No

Audio
ID                                       : 2
Format                                   : AAC
Format/Info                              : Advanced Audio Codec
Format profile                           : LC
Codec ID                                 : A_AAC-2
Duration                                 : 54 min 10 s
Bit rate                                 : 141 kb/s
Channel(s)                               : 2 channels
Channel positions                        : Front: L R
Sampling rate                            : 48.0 kHz
Frame rate                               : 46.875 FPS (1024 SPF)
Compression mode                         : Lossy
Delay relative to video                  : 9 ms
Stream size                              : 54.6 MiB (12%)
Language                                 : English
Default                                  : Yes
Forced                                   : No

Text #1
ID                                       : 3
Format                                   : UTF-8
Codec ID                                 : S_TEXT/UTF8
Codec ID/Info                            : UTF-8 Plain Text
Duration                                 : 50 min 33 s
Bit rate                                 : 204 b/s
Count of elements                        : 757
Stream size                              : 75.8 KiB (0%)
Language                                 : Hindi
Default                                  : Yes
Forced                                   : Yes

Text #2
ID                                       : 4
Format                                   : ASS
Codec ID                                 : S_TEXT/ASS
Codec ID/Info                            : Advanced Sub Station Alpha
Duration                                 : 52 min 54 s
Bit rate                                 : 251 b/s
Count of elements                        : 891
Compression mode                         : Lossless
Stream size                              : 97.4 KiB (0%)
Title                                    : Hindi (Translated)
Language                                 : Hindi
Default                                  : No
Forced                                   : No

Text #3
ID                                       : 5
Format                                   : UTF-8
Codec ID                                 : S_TEXT/UTF8
Codec ID/Info                            : UTF-8 Plain Text
Duration                                 : 52 min 44 s
Bit rate                                 : 73 b/s
Count of elements                        : 845
Stream size                              : 28.5 KiB (0%)
Language                                 : English
Default                                  : No
Forced                                   : No

Menu
00:00:00.000                             : en:00:00:00.000
00:01:54.114                             : en:00:01:54.114
00:11:23.766                             : en:00:11:23.766
00:19:27.833                             : en:00:19:27.833
00:28:16.028                             : en:00:28:16.028
00:36:49.332                             : en:00:36:49.332
00:46:11.686                             : en:00:46:11.686
00:52:50.501                             : en:00:52:50.501


[HBO ORG HINDI DUB]

Special Thanks To Khiladi786 For Hindi Audio
Please Note : 18+ Scene Is synced with English Audio

ScreenShots

           
Category:Movies > Hollywood Dub
Lang:Hindi
Total Size:448.07 MB



|| Download This Tv Show Via Single Resumable Links Size: 448 MB ||

Direct-1 Google Drive | Direct-2 | Direct-3 |

Watch Online Click Here

Post a Comment

0 Comments