Game of Thrones S02E06 BluRay 720p x264 Dual Audio [Hindi + English] Esub 507MB [Khiladi786]


Poster


iMDB
Title: "Game of Thrones" The Old Gods and the New
Year: 2012
Runtime: 54 minutes
Votes: 16851
Rating: 9.1/10
Language: English
Director: David Nutter
Writing By: George R.R. Martin,David Benioff,D.B. Weiss,Vanessa Taylor,
Produced By: David Benioff,Jonathan Brytus,Oliver Butler,Guymon Casady,Bernadette Caulfield,Frank Doelger,Vince Gerardis,George R.R. Martin,Lisa McAtackney,Erika Milutin,Christopher Newman,Greg Spence,Carolyn Strauss,Alan Taylor,Vanessa Taylor,D.B. Weiss,Snorri ├×├│risson,
Music: Ramin Djawadi
Cast:
Peter Dinklage as Tyrion Lannister
Lena Headey as Cersei Lannister
Michelle Fairley as Catelyn Stark
Emilia Clarke as Daenerys Targaryen
Aidan Gillen as Petyr 'Littlefinger' Baelish
Kit Harington as Jon Snow
Charles Dance as Tywin Lannister
Isaac Hempstead Wright as Bran Stark
Richard Madden as Robb Stark
Sophie Turner as Sansa Stark



Details
Name:Game of Thrones S02E06 BluRay 720p x264 Dual Audio [Hindi + English] Esub 507MB [Khiladi786]
Description:
Game of Thrones S02E06 BluRay 720p x264 Dual Audio [Hindi + English] Esub 507MB [Khiladi786]

Show Has 18 + Scenes ... Mind It...





 


Format                                   : Matroska
Format version                           : Version 4 / Version 2
File size                                : 507 MiB
Duration                                 : 53 min 59 s
Overall bit rate                         : 1 312 kb/s

Video
ID                                       : 1
Format                                   : AVC
Format/Info                              : Advanced Video Codec
Format profile                           : High@L4.1
Format settings                          : CABAC / 8 Ref Frames
Format settings, CABAC                   : Yes
Format settings, ReFrames                : 8 frames
Codec ID                                 : V_MPEG4/ISO/AVC
Duration                                 : 53 min 59 s
Bit rate                                 : 1 043 kb/s
Width                                    : 1 280 pixels
Height                                   : 720 pixels
Display aspect ratio                     : 16:9
Frame rate mode                          : Constant
Frame rate                               : 23.976 (24000/1001) FPS
Color space                              : YUV
Chroma subsampling                       : 4:2:0
Bit depth                                : 8 bits
Scan type                                : Progressive
Bits/(Pixel*Frame)                       : 0.047
Stream size                              : 403 MiB (79%)
Writing library                          : x264 core 146 r2538 121396c
Language                                 : English
Default                                  : Yes
Forced                                   : No

Audio #1
ID                                       : 2
Format                                   : AAC
Format/Info                              : Advanced Audio Codec
Format profile                           : LC
Codec ID                                 : A_AAC-2
Duration                                 : 53 min 58 s
Bit rate                                 : 132 kb/s
Channel(s)                               : 2 channels
Channel positions                        : Front: L R
Sampling rate                            : 48.0 kHz
Frame rate                               : 46.875 FPS (1024 SPF)
Compression mode                         : Lossy
Stream size                              : 50.1 MiB (10%)
Language                                 : Hindi
Default                                  : Yes
Forced                                   : Yes

Audio #2
ID                                       : 3
Format                                   : AAC
Format/Info                              : Advanced Audio Codec
Format profile                           : LC
Codec ID                                 : A_AAC-2
Duration                                 : 53 min 59 s
Bit rate                                 : 136 kb/s
Channel(s)                               : 2 channels
Channel positions                        : Front: L R
Sampling rate                            : 48.0 kHz
Frame rate                               : 46.875 FPS (1024 SPF)
Compression mode                         : Lossy
Delay relative to video                  : 9 ms
Stream size                              : 52.6 MiB (10%)
anguage                                 : English
Default                                  : No
Forced                                   : No

Text
ID                                       : 4
Format                                   : UTF-8
Codec ID                                 : S_TEXT/UTF8
Codec ID/Info                            : UTF-8 Plain Text
Duration                                 : 52 min 13 s
Bit rate                                 : 61 b/s
Count of elements                        : 767
Stream size                              : 23.6 KiB (0%)
Language                                 : English
Default                                  : Yes
Forced                                   : No

Menu
00:00:00.000                             : en:00:00:00.000
00:01:54.114                             : en:00:01:54.114
00:10:03.603                             : en:00:10:03.603
00:17:20.456                             : en:00:17:20.456
00:23:42.004                             : en:00:23:42.004
00:34:23.520                             : en:00:34:23.520
00:42:25.460                             : en:00:42:25.460
00:52:39.990                             : en:00:52:39.990


[HBO ORG HINDI DUB]

Special Thanks To Khiladi786 For Hindi Audio
Please Note : 18+ Scene Is synced with English Audio

ScreenShots

             
Category:Movies > Hollywood Dub
Lang:Hindi
Total Size:506.61 MB



|| Download This Tv Show Via Single Resumable Links Size: 507 MB ||

Direct-1 Google Drive | Direct-2 | Direct-3 |

Watch Online Click Here

Post a Comment

0 Comments