Garbage (2018) Hindi 720p HDRip x264 AAC ESub - 900MB - ~TMV


Poster



iMDB
Title: Garbage
Year: 2018
Runtime: 105 minutes
Language: English, Hindi
All Genres: Drama, Thriller
Director: Qaushiq Mukherjee
Writing By: Qaushiq Mukherjee,
Produced By: Dipankar Chaki,Hansal Mehta,Qaushiq Mukherjee,Hina Saiyada,Shailesh R. Singh,
Music: Neel Adhikari Neel Adhikari Rogue Atari
Cast:
Tanmay Dhanania as Phanishwar
Trimala Adhikari as Rami
Satarupa Das as Nanaam
Gitanjali Dang as Simone
Shruti Viswan as Arri
Satchit Puranik as Baba Satchitanand



Details
Name:Garbage (2018) Hindi HDRip - 720p - x264 - AAC - 900MB - ESub ~TMV
Description:
Garbage 2018 Hindi HDRip - 720p - x264 - AAC - 900MB - ESub ~TMV



Format                                   : Matroska
Format version                           : Version 4 / Version 2
File size                                : 914 MiB
Duration                                 : 1 h 49 min
Overall bit rate                         : 1 170 kb/s

Video
ID                                       : 1
Format                                   : AVC
Format/Info                              : Advanced Video Codec
Format profile                           : Main@L4
Format settings                          : CABAC / 4 Ref Frames
Format settings, CABAC                   : Yes
Format settings, ReFrames                : 4 frames
Codec ID                                 : V_MPEG4/ISO/AVC
Duration                                 : 1 h 49 min
Bit rate                                 : 1 088 kb/s
Width                                    : 1 280 pixels
Height                                   : 544 pixels
Display aspect ratio                     : 2.35:1
Frame rate mode                          : Constant
Frame rate                               : 25.000 FPS
Color space                              : YUV
Chroma subsampling                       : 4:2:0
Bit depth                                : 8 bits
Scan type                                : Progressive
Bits/(Pixel*Frame)                       : 0.062
Stream size                              : 850 MiB (93%)
Writing library                          : x264 core 155 r2901 7d0ff22
Language                                 : Hindi
Default                                  : Yes
Forced                                   : No
Color range                              : Limited
Color primaries                          : BT.709
Transfer characteristics                 : BT.709
Matrix coefficients                      : BT.709

Audio
ID                                       : 2
Format                                   : AAC
Format/Info                              : Advanced Audio Codec
Format profile                           : LC
Codec ID                                 : A_AAC-2
Duration                                 : 1 h 49 min
Bit rate                                 : 80.2 kb/s
Channel(s)                               : 2 channels
Channel positions                        : Front: L R
Sampling rate                            : 48.0 kHz
Frame rate                               : 46.875 FPS (1024 SPF)
Compression mode                         : Lossy
Stream size                              : 62.7 MiB (7%)
Language                                 : Hindi
Default                                  : Yes
Forced                                   : No

Text
ID                                       : 3
Format                                   : UTF-8
Codec ID                                 : S_TEXT/UTF8
Codec ID/Info                            : UTF-8 Plain Text
Duration                                 : 1 h 45 min
Bit rate                                 : 13 b/s
Count of elements                        : 379
Stream size                              : 10.7 KiB (0%)
Language                                 : English
Default                                  : Yes
Forced                                   : No

         
Category:Movies > Bollywood
Lang:Hindi
Total Size:914.19 MB



|| Download This Movie Via Single Resumable Links Size: 914 MB ||

Direct-1 Google Drive | Direct-2 | Direct-3 |

Watch Online Click Here

Post a Comment

0 Comments