Genius (2018) Hindi 360p HDRip x264 AAC DD2.0 HC-ESubs 400MB - Team TR


Poster


iMDB
Title: Genius
Year: 2018
Runtime: 165 minutes
Language: Hindi
All Genres: Action, Thriller
Tagline: Dil Ki Ladaai Dimaag Se
Director: Anil Sharma
Writing By: Anil Sharma,Anil Sharma,Sunil Sirvaiya,Amjad Ali,
Produced By: Harsh Dave,Deepak Mukut,Sunil Sharma,
Music: Monty Sharma
Cast:
Utkarsh Sharma as Vasudev Shastri (Vasu / Genius)
Ishita Chauhan as Nandini Chouhan
Mithun Chakraborty as Jai Shankar Prasad
Ayesha Jhulka as Nandini's Mother
Nawazuddin Siddiqui as MRS (Mr Sabhar Khan)
Malti Chahar as RAW agent
Dev Gill as Rajiv ranjan
Zakir Hussain as Minister
Muni Jha as Pujari Baba
Rajiv Kachroo as Jason
Trailers:
Genius Trailer



Details
Name:Genius (2018) Hindi 360p HQ HDRip x264 AC3 DD2.0 ESubs 400MB - Team TR
Description:
Genius 2018 Hindi 360p HQ HDRip x264 AC3 DD2.0 ESubs 400MB - Team TR






Format                                   : Matroska
Format version                           : Version 4 / Version 2
File size                                : 419 MiB
Duration                                 : 2 h 26 min
Overall bit rate                         : 399 kb/s

Video
ID                                       : 1
Format                                   : AVC
Format/Info                              : Advanced Video Codec
Format profile                           : High@L4.2
Format settings                          : CABAC / 16 Ref Frames
Format settings, CABAC                   : Yes
Format settings, ReFrames                : 16 frames
Codec ID                                 : V_MPEG4/ISO/AVC
Duration                                 : 2 h 26 min
Bit rate                                 : 340 kb/s
Width                                    : 640 pixels
Height                                   : 304 pixels
Display aspect ratio                     : 2.112
Frame rate mode                          : Constant
Frame rate                               : 60.000 FPS
Color space                              : YUV
Chroma subsampling                       : 4:2:0
Bit depth                                : 8 bits
Scan type                                : Progressive
Bits/(Pixel*Frame)                       : 0.029
Stream size                              : 357 MiB (85%)
Writing library                          : x264 core 155 r2901 7d0ff22
Language                                 : Hindi
Default                                  : Yes
Forced                                   : No
Color range                              : Limited
Color primaries                          : BT.709
Transfer characteristics                 : BT.709
Matrix coefficients                      : BT.709

Audio
ID                                       : 2
Format                                   : AAC
Format/Info                              : Advanced Audio Codec
Format profile                           : HE-AAC / LC
Format settings                          : NBC
Codec ID                                 : A_AAC-5
Duration                                 : 2 h 26 min
Bit rate                                 : 56.0 kb/s
Channel(s)                               : 2 channels
Channel positions                        : Front: L R
Sampling rate                            : 48.0 kHz / 24.0 kHz
Frame rate                               : 23.438 FPS (1024 SPF)
Compression mode                         : Lossy
Stream size                              : 58.8 MiB (14%)
Language                                 : Hindi
Default                                  : Yes
Forced                                   : No



           
Category:Movies > Bollywood
Lang:Hindi
Total Size:419.19 MB



|| Download This Movie Via Single Resumable Links Size: 419 MB ||

Direct-1 Google Drive | Direct-2 | Direct-3 |

Watch Online Click Here

Post a Comment

0 Comments