Genius (2018) Hindi 720p HDRip x264 AAC DD2.0 HC-ESubs 1.5GB - Zi$t


Poster


iMDB
Title: Genius
Year: 2018
Runtime: 165 minutes
Language: Hindi
All Genres: Action, Thriller
Tagline: Dil Ki Ladaai Dimaag Se
Director: Anil Sharma
Writing By: Anil Sharma,Anil Sharma,Sunil Sirvaiya,Amjad Ali,
Produced By: Harsh Dave,Deepak Mukut,Sunil Sharma,
Music: Monty Sharma
Cast:
Utkarsh Sharma as Vasudev Shastri (Vasu / Genius)
Ishita Chauhan as Nandini Chouhan
Mithun Chakraborty as Jai Shankar Prasad
Ayesha Jhulka as Nandini's Mother
Nawazuddin Siddiqui as MRS (Mr Sabhar Khan)
Malti Chahar as RAW agent
Dev Gill as Rajiv ranjan
Zakir Hussain as Minister
Muni Jha as Pujari Baba
Rajiv Kachroo as Jason
Trailers:
Genius Trailer



Details
Name:Genius (2018) Hindi 720p HDRip x264 AAC DD2.0 HC-ESubs 1.5GB - Zi$t
Description:
Genius (2018) Hindi 720p HDRip x264 AAC DD2.0 HC-ESubs 1.5GB - Zi$t



Format                                   : Matroska
Format version                           : Version 4 / Version 2
File size                                : 1.50 GiB
Duration                                 : 2 h 26 min
Overall bit rate                         : 1 460 kb/s

Video
ID                                       : 1
Format                                   : AVC
Format/Info                              : Advanced Video Codec
Format profile                           : High@L4.1
Format settings                          : CABAC / 8 Ref Frames
Format settings, CABAC                   : Yes
Format settings, ReFrames                : 8 frames
Codec ID                                 : V_MPEG4/ISO/AVC
Duration                                 : 2 h 26 min
Bit rate                                 : 1 264 kb/s
Width                                    : 1 280 pixels
Height                                   : 606 pixels
Display aspect ratio                     : 2.112
Frame rate mode                          : Constant
Frame rate                               : 60.000 FPS
Color space                              : YUV
Chroma subsampling                       : 4:2:0
Bit depth                                : 8 bits
Scan type                                : Progressive
Bits/(Pixel*Frame)                       : 0.027
Stream size                              : 1.30 GiB (87%)
Writing library                          : x264 core 148 r2708 86b7198
Language                                 : Hindi
Default                                  : Yes
Forced                                   : No
Color range                              : Limited
Color primaries                          : BT.709
Transfer characteristics                 : BT.709
Matrix coefficients                      : BT.709

Audio
ID                                       : 2
Format                                   : MPEG Audio
Format version                           : Version 1
Format profile                           : Layer 3
Format settings                          : Joint stereo / MS Stereo
Codec ID                                 : A_MPEG/L3
Codec ID/Hint                            : MP3
Duration                                 : 2 h 26 min
Bit rate mode                            : Constant
Bit rate                                 : 192 kb/s
Channel(s)                               : 2 channels
Sampling rate                            : 48.0 kHz
Frame rate                               : 41.667 FPS (1152 SPF)
Compression mode                         : Lossy
Delay relative to video                  : 22 ms
Stream size                              : 201 MiB (13%)
Language                                 : Hindi
Default                                  : Yes
Forced                                   : No


M6hIM.th.jpg M6fj3.th.jpg M68hz.th.jpg M6dgv.th.jpg M60mE.th.jpg M6Mz9.th.jpg M6YMt.th.jpg M6qSd.th.jpg M6eN8.th.jpg M6cPJ.th.jpg M6LhD.th.jpg M6mlg.th.jpg M66I5.th.jpg
Category:Movies > Bollywood
Lang:Hindi
Total Size:1.51 GB





|| Download This Movie Via Single Resumable Links Size: 1.50 GB ||

Direct-1 Google Drive | Direct-2 | Direct-3 |

Watch Online Click Here

Post a Comment

0 Comments