Gravity (2013) BluRay 720p x264 {Dual Audio} [Hindi Org-English] - Hon3yHD


Poster


iMDB
Imdb Picture Title: Gravity
Year: 2013
Runtime: 91 minutes
Votes: 623456
Rating: 7.8/10
Language: English, Greenlandic
Country: UK, USA
All Genres: Drama, Sci-Fi, Thriller
Plot Outline: Two astronauts work together to survive after an accident which leaves them alone in space.
Tagline: Don't Let Go
Director: Alfonso Cuarón
Writing By: Alfonso Cuarón,Jonás Cuarón,George Clooney,
Produced By: Alfonso Cuarón,Christopher DeFaria,David Heyman,Stephen Jones,Nikki Penny,Gabriela Rodriguez,
Music: Steven Price
Plot:
Dr. Ryan Stone (Sandra Bullock) is a brilliant medical engineer on her first shuttle mission, with veteran astronaut Matt Kowalski (George Clooney) in command of his last flight before retiring. But on a seemingly routine spacewalk, disaster strikes. The shuttle is destroyed, leaving Stone and Kowalsky completely alone - tethered to nothing but each other and spiraling out into the blackness.
- Written by MuTaTeD
The crew of the Space Shuttle Explorer is working on the STS-157 mission. Mission Commander Matt Kowalski, medical engineer Dr. Ryan Stone - who is on her first ever space mission - and flight engineer Shariff Dasari are on a space walk when they learn from Houston control that an explosion has just occurred at a Russian satellite. Before the crew can do anything about it, the explosion debris comes hurtling toward Explorer, irreparably damaging the shuttle and station, immediately killing all the crew except Kowalski and Stone, and knocking out at least incoming communication with Houston control, although they have no idea if there is outgoing communication. The two are left in a precarious position as Stone is untethered with quickly decreasing oxygen on her person meaning that Kowalski has to retrieve her quickly if she has any chance of survival. Even if he can retrieve her and get her some oxygen, they have the difficult task of trying to get to another satellite with whatever equipment is on hand, and from there ultimately back to Earth. Through the process, they are often on their own without the other leading to an extreme feeling of isolation which leads to individual questions and ultimate decisions about their own mortality and what may be best for the other at the expense of oneself.
- Written by Huggo
The veteran astronaut Matt Kowalski is in charge of the Shuttle Explorer's STS-157 mission to repair of the Hubble Telescope by the rookie specialist Ryan Stone. Out of the blue, Houston control aborts the mission warning that a Russian missile hit a satellite, causing a chain reaction and now there is a storm of debris coming upon them. Soon they lose communication with the Mission Control in Houston. The debris strike the Explorer and Ryan is released from the shuttle and Kowalski is forced to bring her back to the shuttle. However, the Explorer is completely damaged and now their only chance to return to Earth is to reach another space station. But they are short of oxygen and fuel.
- Written by Claudio Carvalho, Rio de Janeiro, Brazil
Dr. Ryan Stone is a medical engineer on her first shuttle mission. Her commander is veteran astronaut Matt Kowalsky, helming his last flight before retirement. Then, during a routine space walk by the pair, disaster strikes: The shuttle is destroyed, leaving Ryan and Matt stranded in deep space with no link to Earth and no hope of rescue. As fear turns to panic, they realize that the only way home may be to venture further into space.
- Written by Jwelch5742
Two astronauts work together to survive after an accident which leaves them alone in space.
- Written by paulrichard
Cast:
Sandra Bullock as Ryan Stone
George Clooney as Matt Kowalski
Ed Harris as Mission Control
Orto Ignatiussen as Aningaaq
Phaldut Sharma as Shariff
Amy Warren as Explorer Captain
Basher Savage as Russian Space Station Captain
Adam Cozens as Adam
Trailers:
Main Trailer
"Drifting"
"I've Got You"
Teaser



Details
Name:Gravity.2013.BluRay.720p.x264.{Dual.Audio}.[Hindi.Org-English].-.Hon3yHD
Description:
Gravity (2013) BluRay 720p x264 {Dual Audio} [Hindi Org-English] - Hon3yHD

 

Format                      : Matroska
Format version              : Version 4 / Version 2
File size                   : 999 MiB
Duration                    : 1 h 30 min
Overall bit rate            : 1 535 kb/s
Movie name                  : ~Hammer~

Video
ID                          : 1
Format                      : AVC
Format/Info                 : Advanced Video Codec
Format profile              : High@L4.1
Format settings             : CABAC / 8 Ref Frames
Format settings, CABAC      : Yes
Format settings, ReFrames   : 8 frames
Codec ID                    : V_MPEG4/ISO/AVC
Duration                    : 1 h 30 min
Bit rate                    : 1 200 kb/s
Width                       : 1 280 pixels
Height                      : 532 pixels
Display aspect ratio        : 2.40:1
Frame rate mode             : Constant
Frame rate                  : 23.976 (24000/1001) FPS

Audio #1
ID                          : 2
Format                      : AAC
Format/Info                 : Advanced Audio Codec
Format profile              : LC
Codec ID                    : A_AAC-2
Duration                    : 1 h 30 min
Bit rate                    : 160 kb/s
Channel(s)                  : 2 channels
Channel positions           : Front: L R
Sampling rate               : 48.0 kHz
Frame rate                  : 46.875 FPS (1024 SPF)
Compression mode            : Lossy
Delay relative to video     : -21 ms
Stream size                 : 104 MiB (10%)
Title                       : Stereo
Language                    : Hindi

Audio #2
ID                          : 3
Format                      : AAC
Format/Info                 : Advanced Audio Codec
Format profile              : LC
Codec ID                    : A_AAC-2
Duration                    : 1 h 30 min
Bit rate                    : 160 kb/s
Channel(s)                  : 2 channels
Channel positions           : Front: L R
Sampling rate               : 48.0 kHz
Frame rate                  : 46.875 FPS (1024 SPF)
Compression mode            : Lossy
Delay relative to video     : -21 ms
Stream size                 : 104 MiB (10%)
Title                       : Stereo
Language                    : English

       
Category:Movies > Hollywood Dub
Lang:Hindi
Total Size:999.11 MB



|| Download This Movie Via Single Resumable Links Size: 999 MB ||

Direct-1 Google Drive | Direct-2 | Direct-3 |

Watch Online Click Here

Post a Comment

0 Comments