High Jack (2018) Hindi 720p UntoucheD WEB HD AVC AAC - DTOne


Poster


iMDB
Imdb Picture Title: High Jack
Year: 2018
Votes: 32
Rating: 7.9/10
Language: Hindi
Country: India
All Genres: Comedy
Plot Outline: Rakesh, an out of luck DJ, has just found out that the gig he was to perform in Goa, has been canceled. He is in urgent requirement of money to save his Dad's clinic and in that desperation, partly agrees to carry a packet on his return flight to Delhi. He doesn't realise what's in the packet and the consequences. A bunch of devastated employees of an airline that is shutting down, decide to hijack it's last flight in a bid to recover some dues and to punish their employer. It's the same flight as DJ Rakesh's. With them are flying a bunch of interesting and some weird passengers. Things take a funny turn when people on the flight accidentally get high on the dope including the high jackers. As the plane loses it's direction, the fliers behave out of their minds, the flight turns into one big party...high in the sky.
Director: Akarsh Khurana
Writing By: Adhir Bhat,
Produced By: Vikas Bahl,Nickhil Jakatdar,Madhu Mantena Varma,Vikramaditya Motwane,Arun Prakash,Ranjan Singh,
Cast:
Boloram Das as IpadMan
Nipun Dharmadhikari as ATC Senior Official
Sarthak Kakar as Nakul (Hijacker 1)
Adhaar Khurana as Pilot (Male)
Gaurav Mankoti as Dancer 3
Kumud Mishra as Mr. Taneja
Mantra Mugdh as Vinit (Hijacker 3)
Priyanshu Painyuli as Chaitanya (Cricketer)
Muzamil Qureshi as Taikom (Hijacker 4)
Taaruk Raina as Parth (Nerd guy)



Details
Name:High Jack (2018) Hindi 720p UntoucheD WEB HD AVC AAC - DTOne 10th Anniversary
Description:
High Jack 
(2018) 
720p - UntoucheD WEB HD - AVC - AAC - DTOne 10th Anniversary



Format                                   : MPEG-4
Format profile                           : Base Media
Codec ID                                 : isom (isom/iso2/avc1/mp41)
File size                                : 867 MiB
Duration                                 : 1 h 34 min
Overall bit rate                         : 1 278 kb/s
Writing application                      : Lavf57.75.100

Video
ID                                       : 1
Format                                   : AVC
Format/Info                              : Advanced Video Codec
Format profile                           : High@L3.1
Format settings                          : CABAC / 4 Ref Frames
Format settings, CABAC                   : Yes
Format settings, ReFrames                : 4 frames
Codec ID                                 : avc1
Codec ID/Info                            : Advanced Video Coding
Duration                                 : 1 h 34 min
Bit rate                                 : 1 170 kb/s
Width                                    : 1 280 pixels
Height                                   : 720 pixels
Display aspect ratio                     : 16:9
Frame rate mode                          : Constant
Frame rate                               : 24.000 FPS
Color space                              : YUV
Chroma subsampling                       : 4:2:0
Bit depth                                : 8 bits
Scan type                                : Progressive
Bits/(Pixel*Frame)                       : 0.053
Stream size                              : 776 MiB (90%)
Writing library                          : x264 core 152 r2851 ba24899

Audio
ID                                       : 2
Format                                   : AAC
Format/Info                              : Advanced Audio Codec
Format profile                           : LC
Codec ID                                 : mp4a-40-2
Duration                                 : 1 h 34 min
Bit rate mode                            : Constant
Bit rate                                 : 128 kb/s
Channel(s)                               : 2 channels
Channel positions                        : Front: L R
Sampling rate                            : 44.1 kHz
Frame rate                               : 43.066 FPS (1024 SPF)
Compression mode                         : Lossy
Stream size                              : 86.7 MiB (10%)
Default                                  : Yes
Alternate group                          : 1


Category:Movies > Bollywood
Lang:Hindi
Total Size:867.06 MB





|| Download This Movie Via Single Resumable Links Size: 867 MB ||

Direct-1 Google Drive | Direct-2 | Direct-3 |

Watch Online Click Here

Post a Comment

0 Comments