Hope Aur Hum (2018) Hindi 720p HDRip x264 AC3 DD5.1 ESub ~Kingmaker


Poster


iMDB
Imdb Picture Title: Hope Aur Hum
Year: 2018
Runtime: 96 minutes
Votes: 19
Rating: 8.4/10
Language: Hindi
Country: India
All Genres: Comedy, Drama, Family
Plot Outline: A father obsessed with an old school copying machine wreaks havoc on the family, causing a change in their relationships. Explores the life of each family member and how their lives are intertwined with each other.
Director: Sudip Bandyopadhyay
Writing By: Sudip Bandopadhyay,Neha Pawar,
Produced By: Samira Bandopadhyay,Pvr Picture,Jesal Shah,Divya Girish Shetty,
Music: Rupert Fernandes Rupert Fernandes
Cast:
Beena Banerjee as Nani
Aamir Bashir as Neeraj Srivastava
Neha Chauhan as
Sajid Kabir as Anurag Srivastava
Naveen Kasturia as Nitin Srivastava
Sonali Kulkarni as Aditi Srivastava
Pawan Mahendru as
Naseeruddin Shah as Nagesh Srivastava
Tina Sood as
Virti Vaghani as Tanu Srivastava



Details
Name:Hope Aur Hum (2018) Hindi 720p HDRip x264 AC3 DD5.1 ESub ~Kingmaker
Description:
Hope Aur Hum (2018) Hindi 720p HDRip x264 AC3 DD5.1 ESub ~Kingmaker




Format                                   : Matroska
Format version                           : Version 4 / Version 2
File size                                : 981 MiB
Duration                                 : 1 h 34 min
Overall bit rate                         : 1 447 kb/s

Video
ID                                       : 1
Format                                   : AVC
Format/Info                              : Advanced Video Codec
Format profile                           : Main@L3.1
Format settings                          : CABAC / 3 Ref Frames
Format settings, CABAC                   : Yes
Format settings, ReFrames                : 3 frames
Codec ID                                 : V_MPEG4/ISO/AVC
Duration                                 : 1 h 34 min
Bit rate                                 : 1 254 kb/s
Width                                    : 1 280 pixels
Height                                   : 720 pixels
Display aspect ratio                     : 16:9
Frame rate mode                          : Constant
Frame rate                               : 24.000 FPS
Color space                              : YUV
Chroma subsampling                       : 4:2:0
Bit depth                                : 8 bits
Scan type                                : Progressive
Bits/(Pixel*Frame)                       : 0.057
Stream size                              : 849 MiB (87%)
Default                                  : Yes
Forced                                   : No

Audio
ID                                       : 2
Format                                   : E-AC-3
Format/Info                              : Enhanced Audio Coding 3
Codec ID                                 : A_EAC3
Duration                                 : 1 h 34 min
Bit rate mode                            : Constant
Bit rate                                 : 192 kb/s
Channel(s)                               : 6 channels
Channel positions                        : Front: L C R, Side: L R, LFE
Sampling rate                            : 48.0 kHz
Frame rate                               : 187.500 FPS (256 SPF)
Compression mode                         : Lossy
Delay relative to video                  : -41 ms
Stream size                              : 130 MiB (13%)
Service kind                             : Complete Main
Default                                  : Yes
Forced                                   : No

Text
ID                                       : 3
Format                                   : UTF-8
Codec ID                                 : S_TEXT/UTF8
Codec ID/Info                            : UTF-8 Plain Text
Duration                                 : 1 h 28 min
Bit rate                                 : 55 b/s
Count of elements                        : 1136
Stream size                              : 35.9 KiB (0%)
Default                                  : Yes
Forced                                   : No





Category:Movies > Bollywood
Lang:Hindi
Total Size:980.52 MB






|| Download This Movie Via Single Resumable Links Size: 981 MB ||

Direct-1 Google Drive | Direct-2 | Direct-3 |

Watch Online Click Here

Post a Comment

0 Comments