Into The Sun (2005) BluRay 720p x264 {Dual Audio} [Hindi - English] - Hon3yHD


Poster


iMDB
Imdb Picture Title: Into the Sun
Year: 2005
Runtime: 97 minutes
Votes: 6228
Rating: 4.5/10
Language: English, Japanese
Country: USA
All Genres: Action, Adventure, Thriller
Plot Outline: When a government official is killed, an American operative with experience in the Yakuza culture is brought in to investigate.
Tagline: Only one man can stop the Yakuza.
Director: mink
Writing By: Steven Seagal,Joe Halpin,Steven Seagal,Joe Halpin,Trevor Miller,
Produced By: Erik Anderson,Jim Begg,Binh Dang,George Edde,Cellin Gluck,Phillip B. Goldfine,Frank Hildebrand,Elie Samaha,Steven Seagal,Tracee Stanley,Kevan Van Thompson,Kazutoshi Wadakura,Mac Yasuda,
Music: Stanley Clarke
Cast:
Steven Seagal as Travis Hunter
Matthew Davis as FBI Agent Sean Mack
Takao Ohsawa as Kuroda
Eddie George as Jones
William Atherton as CIA Agent Block
Juliette Marquis as Jewel
Ken Lo as Chen
Kosuke Toyohara as Fudomyo-o
Akira Terao as Matsuda
Eve Masatoh as Kojima
Trailers:
Into the Sun



Details
Name:Into.The.Sun.2005.BluRay.720p.x264.{Dual.Audio}.[Hindi Org-English].-.Hon3yHD
Description:
Into The Sun (2005) BluRay 720p x264 {Dual Audio} [Hindi - English] - Hon3yHD

Format                      : Matroska
Format version              : Version 4 / Version 2
File size                   : 1 010 MiB
Duration                    : 1 h 36 min
Overall bit rate            : 1 456 kb/s
Movie name                  : ~Hammer~

Video
ID                          : 1
Format                      : AVC
Format/Info                 : Advanced Video Codec
Format profile              : High@L4.1
Format settings             : CABAC / 8 Ref Frames
Format settings, CABAC      : Yes
Format settings, ReFrames   : 8 frames
Codec ID                    : V_MPEG4/ISO/AVC
Duration                    : 1 h 36 min
Bit rate                    : 1 200 kb/s
Width                       : 1 280 pixels
Height                      : 720 pixels
Display aspect ratio        : 16:9
Frame rate mode             : Constant
Frame rate                  : 23.976 (24000/1001) FPS

Audio #1
ID                          : 2
Format                      : AAC
Format/Info                 : Advanced Audio Codec
Format profile              : LC
Codec ID                    : A_AAC-2
Duration                    : 1 h 36 min
Bit rate                    : 128 kb/s
Channel(s)                  : 2 channels
Channel positions           : Front: L R
Sampling rate               : 48.0 kHz
Frame rate                  : 46.875 FPS (1024 SPF)
Compression mode            : Lossy
Delay relative to video     : -21 ms
Stream size                 : 88.9 MiB (9%)
Title                       : Stereo
Language                    : Hindi

Audio #2
ID                          : 3
Format                      : AAC
Format/Info                 : Advanced Audio Codec
Format profile              : LC
Codec ID                    : A_AAC-2
Duration                    : 1 h 36 min
Bit rate                    : 128 kb/s
Channel(s)                  : 2 channels
Channel positions           : Front: L R
Sampling rate               : 48.0 kHz
Frame rate                  : 46.875 FPS (1024 SPF)
Compression mode            : Lossy
Delay relative to video     : -21 ms
Stream size                 : 88.9 MiB (9%)
Title                       : Stereo
Language                    : English

       
Category:Movies > Hollywood Dub
Lang:Hindi
Total Size:1,010.05 MB



|| Download This Movie Via Single Resumable Links Size: 1010 MB ||

Direct-1 Google Drive | Direct-2 | Direct-3 |

Watch Online Click Here

Post a Comment

0 Comments