Ivan Thanthiran (2017) 720p UNCUT HDRip x264 HC-ESub [Dual Audio] [Hindi DD 2.0 - Tamil DD 2.0] Exclusive By -=!TMV!=-


Poster


iMDB
Title: Ivan Thanthiran
Year: 2017
Votes: 22
Rating: 8.2/10
Language: Tamil
Country: India
All Genres: Action, Comedy
Plot Outline: Two engineering dropouts stumble upon the activities of a corrupt education minister owning engineering colleges and expose him. The minister wants revenge and launches a manhunt for them. The cat-and-mouse game begins.
Director: R. Kannan
Writing By: R. Kannan,
Produced By: R. Kannan,
Music: S. Thaman
Plot:
Two engineering dropouts stumble upon the activities of a corrupt education minister owning engineering colleges and expose him. The minister wants revenge and launches a manhunt for them. The cat-and-mouse game begins.

Cast:
RJ Balaji as
Madhan Bob as
Gautham Karthik as Sakthi
Mayilsamy as
Bharath Reddy as
Stunt Silva as
Shraddha Srinath as
Super Subbarayan as
Sri Vignesh as



Details
Name:Ivan Thanthiran (2017) 720p UNCUT HDRip x264 HC-ESub [Dual Audio] [Hindi DD 2.0 - Tamil DD 2.0]...
Description:
Ivan Thanthiran (2017) 720p UNCUT HDRip x264 HC-ESub [Dual Audio] [Hindi DD 2.0 - Tamil DD 2.0] Exclusive By -=!TMV!=-



Format                                   : Matroska
Format version                           : Version 4 / Version 2
File size                                : 1.38 GiB
Duration                                 : 1 h 54 min
Overall bit rate                         : 1 718 kb/s

Video
ID                                       : 1
Format                                   : AVC
Format/Info                              : Advanced Video Codec
Format profile                           : High@L4.1
Format settings                          : CABAC / 4 Ref Frames
Format settings, CABAC                   : Yes
Format settings, ReFrames                : 4 frames
Codec ID                                 : V_MPEG4/ISO/AVC
Duration                                 : 1 h 54 min
Bit rate                                 : 1 433 kb/s
Width                                    : 1 280 pixels
Height                                   : 544 pixels
Display aspect ratio                     : 2.35:1
Frame rate mode                          : Constant
Frame rate                               : 25.000 FPS
Color space                              : YUV
Chroma subsampling                       : 4:2:0
Bit depth                                : 8 bits
Scan type                                : Progressive
Bits/(Pixel*Frame)                       : 0.082
Stream size                              : 1.14 GiB (83%)
Writing library                          : x264 core 155 r2901 7d0ff22
Language                                 : Tamil
Default                                  : Yes
Forced                                   : No
Color range                              : Limited
Color primaries                          : BT.709
Transfer characteristics                 : BT.709
Matrix coefficients                      : BT.709

Audio #1
ID                                       : 2
Format                                   : AAC
Format/Info                              : Advanced Audio Codec
Format profile                           : LC
Codec ID                                 : A_AAC-2
Duration                                 : 1 h 54 min
Bit rate                                 : 126 kb/s
Channel(s)                               : 2 channels
Channel positions                        : Front: L R
Sampling rate                            : 44.1 kHz
Frame rate                               : 43.066 FPS (1024 SPF)
Compression mode                         : Lossy
Delay relative to video                  : -23 ms
Stream size                              : 103 MiB (7%)
Language                                 : Hindi
Default                                  : Yes
Forced                                   : No

Audio #2
ID                                       : 3
Format                                   : AAC
Format/Info                              : Advanced Audio Codec
Format profile                           : LC
Codec ID                                 : A_AAC-2
Duration                                 : 1 h 54 min
Bit rate                                 : 160 kb/s
Channel(s)                               : 2 channels
Channel positions                        : Front: L R
Sampling rate                            : 44.1 kHz
Frame rate                               : 43.066 FPS (1024 SPF)
Compression mode                         : Lossy
Delay relative to video                  : -23 ms
Stream size                              : 131 MiB (9%)
Language                                 : Tamil
Default                                  : No
Forced                                   : No

         
Category:Movies > South Dub
Lang:Hindi
Total Size:1.38 GB





|| Download This Movie Via Single Resumable Links Size: 1.38 GB ||

Direct-1 Google Drive | Direct-2 | Direct-3 |

Watch Online Click Here

Post a Comment

0 Comments