Jonah Hex (2010) BluRay 720p x264 {Dual Audio} [Hindi Org-English] - Hon3yHD


Poster


iMDB
Imdb Picture Title: Jonah Hex
Year: 2010
Runtime: 81 minutes
Votes: 50216
Rating: 4.7/10
Language: English
Country: USA
All Genres: Action, Drama, Fantasy, Thriller, Western
Plot Outline: During Grant's presidency, Jonah Hex is a remorseless bounty hunter. In the Civil War, he was a rebel whose honor put him afoul of a Confederate general, Quentin Turnbull, who murdered Jonah's family while Jonah watched. As a result of the ordeal, Jonah's face is disfigured and he can talk with the dead. After staging his own death, Turnbull, with a group of rebel stalwarts, hatches a plan to bring the Union to its knees. Grant wants Hex to stop it. While the nation readies to celebrate Independence Day, Hex and an unlikely ally have little time to stop Turnbull and his weapon of mass destruction. Written by <jhailey@hotmail.com>
Tagline: Revenge gets ugly
Director: Jimmy Hayward
Writing By: Mark Neveldine,Brian Taylor,William Farmer,Mark Neveldine,Brian Taylor,John Albano,Tony DeZuniga,
Produced By: William Fay,Akiva Goldsman,John Goldstone,Jon Jashni,Andrew Lazar,Matt LeBlanc,Joshua Levinson,Margot Lulick,Ravi D. Mehta,Richard Middleton,Thomas Tull,Miri Yoon,
Music: Marco Beltrami Mastodon
Cast:
Josh Brolin as Jonah Hex
John Malkovich as Quentin Turnbull
Megan Fox as Lilah
Michael Fassbender as Burke
Will Arnett as Lieutenant Grass
John Gallagher Jr. as Lieutenant Evan
Tom Wopat as Colonel Slocum
Michael Shannon as Doc Cross Williams
Wes Bentley as Adleman Lusk
Julia Jones as Cassie
Trailers:
Jonah Hex: Trailer #1



Details
Name:Jonah.Hex.2010.BluRay.720p.x264.{Dual.Audio}.[Hindi Org-English].-.Hon3yHD
Description:
Jonah Hex (2010) BluRay 720p x264 {Dual Audio} [Hindi Org-English] - Hon3yHD

 

Format                      : Matroska
Format version              : Version 4 / Version 2
File size                   : 850 MiB
Duration                    : 1 h 21 min
Overall bit rate            : 1 458 kb/s
Movie name                  : Hammer@Hon3yHD

Video
ID                          : 1
Format                      : AVC
Format/Info                 : Advanced Video Codec
Format profile              : High@L4.1
Format settings             : CABAC / 8 Ref Frames
Format settings, CABAC      : Yes
Format settings, ReFrames   : 8 frames
Codec ID                    : V_MPEG4/ISO/AVC
Duration                    : 1 h 21 min
Bit rate                    : 1 200 kb/s
Width                       : 1 280 pixels
Height                      : 532 pixels
Display aspect ratio        : 2.40:1
Original display aspect rat : 2.40:1
Frame rate mode             : Constant
Frame rate                  : 23.976 (24000/1001) FPS

Audio #1
ID                          : 2
Format                      : AAC
Format/Info                 : Advanced Audio Codec
Format profile              : LC
Codec ID                    : A_AAC-2
Duration                    : 1 h 21 min
Bit rate                    : 128 kb/s
Channel(s)                  : 2 channels
Channel positions           : Front: L R
Sampling rate               : 48.0 kHz
Frame rate                  : 46.875 FPS (1024 SPF)
Compression mode            : Lossy
Delay relative to video     : -21 ms
Stream size                 : 74.8 MiB (9%)
Title                       : Stereo
Language                    : Hindi

Audio #2
ID                          : 3
Format                      : AAC
Format/Info                 : Advanced Audio Codec
Format profile              : LC
Codec ID                    : A_AAC-2
Duration                    : 1 h 21 min
Bit rate                    : 128 kb/s
Channel(s)                  : 2 channels
Channel positions           : Front: L R
Sampling rate               : 48.0 kHz
Frame rate                  : 46.875 FPS (1024 SPF)
Compression mode            : Lossy
Delay relative to video     : -21 ms
Stream size                 : 74.5 MiB (9%)
Title                       : Stereo
Language                    : English

       
Category:Movies > Hollywood Dub
Lang:Hindi
Total Size:849.92 MB



|| Download This Movie Via Single Resumable Links Size: 850 MB ||

Direct-1 Google Drive | Direct-2 | Direct-3 |

Watch Online Click Here

Post a Comment

0 Comments