Jurassic World Fallen Kingdom (2018) BluRay 720p x265 [Dual Audio] [Hindi DD 5.1 - Eng] AAC Msub -=!Katyayan!=-


Poster


iMDB
Imdb Picture Title: Jurassic World: Fallen Kingdom
Year: 2018
Runtime: 128 minutes
Votes: 3401
Rating: 7.4/10
Language: English
Country: USA, Spain
All Genres: Action, Adventure, Sci-Fi
Plot Outline: Four years after the Jurassic World theme park was closed down, Owen and Claire return to Isla Nublar to save the dinosaurs when they learn that a once dormant volcano on the island is active and is threatening to extinguish all life there. Along the way, Owen sets out to find Blue, his lead raptor, and discovers a conspiracy that could disrupt the natural order of the entire planet. Life has found a way, again. Written by Jake Logsdon
Tagline: The park is gone
Director: J.A. Bayona
Writing By: Colin Trevorrow,Derek Connolly,Michael Crichton,
Produced By: Belén Atienza,Patrick Crowley,Thomas Hayslip,Frank Marshall,Steven Spielberg,Colin Trevorrow,Thomas Tull,
Music: Michael Giacchino
Cast:
Bryce Dallas Howard as Claire Dearing
Chris Pratt as Owen Grady
Ted Levine as Ken Wheatley
Jeff Goldblum as Ian Malcolm
Toby Jones as Gunnar Eversol
James Cromwell as Benjamin Lockwood
BD Wong as Dr. Henry Wu
Rafe Spall as Eli Mills
Daniella Pineda as Zia Rodriguez
Justice Smith as Franklin
Trailers:
Final Trailer
New Trailer Teaser
Official Trailer #2
Official Trailer
"Run!"



Details
Name:Jurassic World Fallen Kingdom (2018) BluRay 720p x265 [Dual Audio] [Hindi DD 5.1 - Eng] AAC Msu...
Description:
Jurassic World Fallen Kingdom 2018 BluRay 720p x265 [Dual Audio] [Hindi DD 5.1 - Eng] AAC Msub -=!Katyayan!=-



AUDIO CREDITS ~ INVINCIBLE (THANKS)

Format                                   : Matroska
Format version                           : Version 4
File size                                : 995 MiB
Duration                                 : 2 h 8 min
Overall bit rate                         : 1 084 kb/s
Movie name                               : Jurassic World Fallen Kingdom 2018 BluRay 720p x265 [Dual Audio] [Hindi DD 5.1 - Eng] AAC Msub -=!Katyayan!=-
Encoded date                             : UTC 2018-09-29 08:36:16
Writing application                      : mkvmerge v24.0.0 ('Beyond The Pale') 64-bit
Writing library                          : libebml v1.3.6 + libmatroska v1.4.9
Cover                                    : Yes
Attachments                              : Jurassic World Fallen Kingdom 2018 Cover.JPG

Video
ID                                       : 1
Format                                   : HEVC
Format/Info                              : High Efficiency Video Coding
Format profile                           : Main@L3.1@Main
Codec ID                                 : V_MPEGH/ISO/HEVC
Duration                                 : 2 h 8 min
Bit rate                                 : 919 kb/s
Width                                    : 1 280 pixels
Height                                   : 536 pixels
Display aspect ratio                     : 2.40:1
Frame rate mode                          : Constant
Frame rate                               : 23.976 (24000/1001) FPS
Color space                              : YUV
Chroma subsampling                       : 4:2:0
Bit depth                                : 8 bits
Bits/(Pixel*Frame)                       : 0.056
Stream size                              : 843 MiB (85%)
Title                                    : Jurassic World Fallen Kingdom 2018 BluRay 720p x265 [Dual Audio] [Hindi DD 5.1 - Eng] AAC Msub -=!Katyayan!=-
Writing library                          : x265 2.6:[Windows][GCC 7.2.0][64 bit] 8bit+10bit+12bit
Language                                 : English
Default                                  : Yes
Forced                                   : No
Color range                              : Limited
Color primaries                          : BT.709
Transfer characteristics                 : BT.709
Matrix coefficients                      : BT.709

Audio #1
ID                                       : 2
Format                                   : AAC LC
Format/Info                              : Advanced Audio Codec Low Complexity
Codec ID                                 : A_AAC-2
Duration                                 : 2 h 8 min
Bit rate                                 : 128 kb/s
Channel(s)                               : 6 channels
Channel layout                           : C L R Ls Rs LFE
Sampling rate                            : 48.0 kHz
Frame rate                               : 46.875 FPS (1024 SPF)
Compression mode                         : Lossy
Stream size                              : 117 MiB (12%)
Title                                    : -=!Katyayan!=-
Language                                 : Hindi
Default                                  : Yes
Forced                                   : Yes

Audio #2
ID                                       : 3
Format                                   : AAC LC SBR PS
Format/Info                              : Advanced Audio Codec Low Complexity with Spectral Band Replication and Parametric Stereo
Commercial name                          : HE-AACv2
Format settings                          : Explicit
Codec ID                                 : A_AAC-2
Duration                                 : 2 h 8 min
Bit rate                                 : 16.0 kb/s
Channel(s)                               : 2 channels
Channel layout                           : C
Sampling rate                            : 48.0 kHz
Frame rate                               : 23.438 FPS (2048 SPF)
Compression mode                         : Lossy
Delay relative to video                  : 11 ms
Stream size                              : 14.7 MiB (1%)
Title                                    : -=!Katyayan!=-
Language                                 : English
Default                                  : No
Forced                                   : No

Text #1
ID                                       : 4
Format                                   : PGS
Muxing mode                              : zlib
Codec ID                                 : S_HDMV/PGS
Codec ID/Info                            : Picture based subtitle format used on BDs/HD-DVDs
Duration                                 : 2 h 6 min
Bit rate                                 : 20.3 kb/s
Count of elements                        : 2602
Stream size                              : 18.4 MiB (2%)
Title                                    : -=!Katyayan!=-
Language                                 : Hindi
Default                                  : Yes
Forced                                   : Yes

Text #2
ID                                       : 5
Format                                   : PGS
Muxing mode                              : zlib
Codec ID                                 : S_HDMV/PGS
Codec ID/Info                            : Picture based subtitle format used on BDs/HD-DVDs
Duration                                 : 2 h 7 min
Bit rate                                 : 35.3 kb/s
Count of elements                        : 3541
Stream size                              : 32.1 MiB (3%)
Title                                    : -=!Katyayan!=-
Language                                 : English
Default                                  : No
Forced                                   : No

Menu
00:00:00.000                             : :00:00:00.000
00:07:13.224                             : :00:07:13.224
00:12:01.554                             : :00:12:01.554
00:17:17.745                             : :00:17:17.745
00:21:17.193                             : :00:21:17.193
00:28:49.811                             : :00:28:49.811
00:35:04.728                             : :00:35:04.686
00:40:51.574                             : :00:40:51.574
00:46:32.498                             : :00:46:32.498
00:52:05.039                             : :00:52:04.997
01:00:59.197                             : :01:00:59.197
01:06:50.256                             : :01:06:50.256
01:11:07.638                             : :01:11:07.638
01:17:21.095                             : :01:17:21.095
01:26:55.210                             : :01:26:55.210
01:33:01.659                             : :01:33:01.493
01:42:55.878                             : :01:42:55.878
01:50:01.553                             : :01:50:01.553
01:54:56.390                             : :01:54:56.223
01:58:38.069                             : :01:58:37.986


 
Category:Movies > Hollywood Dub
Lang:Hindi
Total Size:994.95 MB





|| Download This Movie Via Single Resumable Links Size: 995 MB ||

Direct-1 Google Drive | Direct-2 | Direct-3 |

Watch Online Click Here

Post a Comment

0 Comments