Karenjit Kaur - The Untold Story of Sunny Leone (2018) Hindi S02 720p WEB-DL H264 AAC 2.0 - Team Crazy


Poster


iMDB
Title: Karenjit Kaur - The Untold Story of Sunny Leone
Year: 2018
Language: English, Hindi
Country: India
All Genres: Biography
Plot Outline: The life story of Indian-Canadian actress and former adult film star, Sunny Leone.
Tagline: The untold story of Sunny Leone.
Director: Aditya Datt
Writing By: Niranjan Kaushik,Karan Shrikant Sharma,
Produced By: Kishor Arora,Akash Chawla,Shareen Mantri Kedia,Kanwal Kohli,Angarika Mantri,Sanjay Mehta,Arunava Sengupta,Amit Vij,Muhitt Agarwaal,
Music: Rachita Arora
Cast:
Bijay Jasjit Anand as 10 episodes, 2018
Raj Arjun as 10 episodes, 2018
Karamvir Lamba as 10 episodes, 2018
Sunny Leone as Herself 10 episodes, 2018
Vansh Pradhan as 10 episodes, 2018
Rysa Saujani as 10 episodes, 2018
Grusha Singh as 10 episodes, 2018
Marc Buckner as Daniel 3 episodes, 2018
Sujata Sehgal as Pammi Bua 3 episodes, 2018
Jan Bostock as owner of Penthouse 1 episode, 2018



Details
Name:Karenjit Kaur - The Untold Story of Sunny Leone (2018) Hindi S02 720p WEB-DL H264 AAC 2.0 - Team Crazy
Description:
Karenjit Kaur - The Untold Story of Sunny Leone (2018) Hindi S02 720p WEB-DL H264 AAC 2.0 - Team Crazy


https://m.media-amazon.com/images/M/MV5BNTQwZTQzYTYtNzdmYi00N2M3LTliZWEtMDk0NzkyOGU0MTdlXkEyXkFqcGdeQXVyMjQwOTU5NTg@._V1_.jpg



Specs

Source : KartiKing@ZEE5

 
File size : 200 ~ 300 MiB
Duration : 20 ~ 27 min
Overall bit rate : 3 000 kb/s
 

Episodes : 06

Format                                   : MPEG-4
Format profile                           : Base Media
Codec ID                                 : isom (isom/iso2/avc1/mp41)
File size                                : 253 MiB
Duration                                 : 24 min 41 s
Overall bit rate                         : 1 431 kb/s
Movie name                               : S02 Episode 6 - Time to Say Goodbye
Writing application                      : Lavf58.12.100

Video
ID                                       : 1
Format                                   : AVC
Format/Info                              : Advanced Video Codec
Format profile                           : High@L3.1
Format settings                          : CABAC / 4 Ref Frames
Format settings, CABAC                   : Yes
Format settings, ReFrames                : 4 frames
Codec ID                                 : avc1
Codec ID/Info                            : Advanced Video Coding
Duration                                 : 24 min 41 s
Bit rate                                 : 1 348 kb/s
Width                                    : 1 280 pixels
Height                                   : 720 pixels
Display aspect ratio                     : 16:9
Frame rate mode                          : Constant
Frame rate                               : 25.000 FPS
Color space                              : YUV
Chroma subsampling                       : 4:2:0
Bit depth                                : 8 bits
Scan type                                : Progressive
Bits/(Pixel*Frame)                       : 0.059
Stream size                              : 229 MiB (91%)
Writing library                          : x264 core 148 r2643 5c65704

Audio
ID                                       : 2
Format                                   : AAC
Format/Info                              : Advanced Audio Codec
Format profile                           : LC
Codec ID                                 : mp4a-40-2
Duration                                 : 24 min 41 s
Bit rate mode                            : Constant
Bit rate                                 : 128 kb/s
Channel(s)                               : 2 channels
Channel(s)_Original                      : 1 channel
Channel positions                        : Front: C
Sampling rate                            : 44.1 kHz
Frame rate                               : 43.066 FPS (1024 SPF)
Compression mode                         : Lossy
Stream size                              : 22.6 MiB (9%)
Default                                  : Yes
Alternate group                          : 1


 

MNaaR.th.png MNJCA.th.png MNyoe.th.png Mn9wU.th.png
Category:TV > Indian
Lang:Hindi
Total Size:1.41 GB



|| Download This Tv Show Via Single Resumable Links Size: 1.41 GB ||

Direct-1 Google Drive |

  PassWord :- Sworld4u

Post a Comment

0 Comments