Karenjit Kaur - The Untold Story of Sunny Leone (2018) Hindi S02 1080p WEB-DL H264 AAC 2.0 ESubs - Team Telly


Poster


iMDB
Title: Karenjit Kaur - The Untold Story of Sunny Leone
Year: 2018
Language: English, Hindi
Country: India
All Genres: Biography
Plot Outline: The life story of Indian-Canadian actress and former adult film star, Sunny Leone.
Tagline: The untold story of Sunny Leone.
Director: Aditya Datt
Writing By: Niranjan Kaushik,Karan Shrikant Sharma,
Produced By: Kishor Arora,Akash Chawla,Shareen Mantri Kedia,Kanwal Kohli,Angarika Mantri,Sanjay Mehta,Arunava Sengupta,Amit Vij,Muhitt Agarwaal,
Music: Rachita Arora
Cast:
Bijay Jasjit Anand as 10 episodes, 2018
Raj Arjun as 10 episodes, 2018
Karamvir Lamba as 10 episodes, 2018
Sunny Leone as Herself 10 episodes, 2018
Vansh Pradhan as 10 episodes, 2018
Rysa Saujani as 10 episodes, 2018
Grusha Singh as 10 episodes, 2018
Marc Buckner as Daniel 3 episodes, 2018
Sujata Sehgal as Pammi Bua 3 episodes, 2018
Jan Bostock as owner of Penthouse 1 episode, 2018



Details
Name:Karenjit Kaur.Season2.1080p.ZEE5DL.AVC.DD2.0.ESUBS.Team Telly
Description:
Karenjit Kaur - The Untold Story of Sunny Leone (2018) Hindi S02 1080p WEB-DL H264 AAC 2.0 ESubs - Team Telly

https://m.media-amazon.com/images/M/MV5BNTQwZTQzYTYtNzdmYi00N2M3LTliZWEtMDk0NzkyOGU0MTdlXkEyXkFqcGdeQXVyMjQwOTU5NTg@._V1_.jpg



Specs

Source : ZEE5

 
File size : 400 ~ 500 MiB
Duration : 20 ~ 27 min
Overall bit rate : 3 000 kb/s
Episodes : 06


Format                                   : Matroska
Format version                           : Version 4 / Version 2
File size                                : 515 MiB
Duration                                 : 24 min 23 s
Overall bit rate                         : 2 950 kb/s
Encoded date                             : UTC 2018-09-17 20:39:05
Writing application                      : mkvmerge v26.0.0 ('In The Game') 64-bit
Writing library                          : libebml v1.3.6 + libmatroska v1.4.9

Video
ID                                       : 1
Format                                   : AVC
Format/Info                              : Advanced Video Codec
Format profile                           : High@L4
Format settings                          : CABAC / 4 Ref Frames
Format settings, CABAC                   : Yes
Format settings, ReFrames                : 4 frames
Codec ID                                 : V_MPEG4/ISO/AVC
Duration                                 : 24 min 23 s
Bit rate                                 : 3 000 kb/s
Width                                    : 1 920 pixels
Height                                   : 1 080 pixels
Display aspect ratio                     : 16:9
Frame rate mode                          : Constant
Frame rate                               : 25.000 FPS
Color space                              : YUV
Chroma subsampling                       : 4:2:0
Bit depth                                : 8 bits
Scan type                                : Progressive
Bits/(Pixel*Frame)                       : 0.058
Stream size                              : 503 MiB (98%)
Writing library                          : x264 core 152 r2854 e9a5903
Default                                  : Yes
Forced                                   : No

Audio
ID                                       : 3
Format                                   : AAC
Format/Info                              : Advanced Audio Codec
Format profile                           : LC
Codec ID                                 : A_AAC-2
Duration                                 : 24 min 23 s
Bit rate                                 : 64.3 kb/s
Channel(s)                               : 2 channels
Channel positions                        : Front: L R
Sampling rate                            : 48.0 kHz
Frame rate                               : 46.875 FPS (1024 SPF)
Compression mode                         : Lossy
Stream size                              : 11.2 MiB (2%)
Default                                  : Yes
Forced                                   : No

Text
ID                                       : 2
Format                                   : UTF-8
Codec ID                                 : S_TEXT/UTF8
Codec ID/Info                            : UTF-8 Plain Text
Duration                                 : 9 s 0 ms
Bit rate                                 : 29 b/s
Count of elements                        : 2
Stream size                              : 33.0 Bytes (0%)
Default                                  : Yes
Forced                                   : Yes


 

MN3o9.th.png MNnad.th.png MNNtE.th.png MNR18.th.png MN4Vt.th.png MNs2J.th.png MN1eD.th.png MN5pg.th.png
Category:TV > Indian
Lang:Hindi
Total Size:2.86 GB



|| Download This Tv Show Via Single Resumable Links Size: 2.86 GB ||

Direct-1 Google Drive |

  PassWord :- Sworld4u

Post a Comment

0 Comments