Kung Fu Panda 2 (2011) BluRay 720p x264 [Dual Audio] [Hindi DD 5.1 - Eng] AAC Esub -=!Katyayan!=-


Poster



iMDB
Imdb Picture Title: Kung Fu Panda 2
Year: 2011
Runtime: 90 minutes
Votes: 212812
Rating: 7.3/10
Language: English
Country: USA
All Genres: Animation, Action, Adventure, Comedy, Family, Fantasy
Plot Outline: In the Valley of Peace, Po Ping is revelling in his fulfilled dreams as he serves as the fabled Dragon Warrior protecting his home with his heroes now his closest friends. However, Po and company learn that the murderous Lord Shen of Gongman City is threatening the land with a fearsome new weapon that could mean the end of kung fu. They attempt to stop him, but the panda is burdened with crippling memory flashbacks linked to this villain. Now with China in the balance, Po must learn about his past and find true inner peace against all opposition. Written by Kenneth Chisholm (kchishol@rogers.com)
Tagline: Ska2oosh!
Director: Jennifer Yuh Nelson
Writing By: Jonathan Aibel,Glenn Berger,
Produced By: Jonathan Aibel,Glenn Berger,Suzanne Buirgy,Melissa Cobb,Lisa J. Freberg,
Music: John Powell Hans Zimmer
Cast:
Jack Black as Po
Angelina Jolie as Tigress
Dustin Hoffman as Shifu
Gary Oldman as Shen
Jackie Chan as Monkey
Seth Rogen as Mantis
Lucy Liu as Viper
David Cross as Crane
James Hong as Mr. Ping
Michelle Yeoh as Soothsayer
Trailers:
Trailer #1
Kung Fu Panda 2: Teaser Trailer



Details
Name:Kung Fu Panda 2 (2011) BluRay 720p x264 [Dual Audio] [Hindi DD 5.1 - Eng] AAC Esub -=!Katyayan!...
Description:

Kung Fu Panda 2 (2011) BluRay 720p x264 [Dual Audio] [Hindi DD 5.1 - Eng] AAC Esub -=!Katyayan!=-


 


-=====================Source Credit=====================-
:::::::::::::::::::> Video ---- Yify
:::::::::::::::::::> Audio ---- Org Untouched Bluray 5.1 640Kbps Hindi By ~Team (HDDR)


Format                                   : Matroska
Format version                           : Version 4 / Version 2
File size                                : 725 MiB
Duration                                 : 1 h 30 min
Overall bit rate                         : 1 122 kb/s
Movie name                               : Kung Fu Panda 2 (2011) BluRay 720p x264 [Dual Audio] [Hindi DD 5.1 - Eng] AAC Esub -=!Katyayan!=-
Encoded date                             : UTC 2018-06-23 15:02:28
Writing application                      : mkvmerge v19.0.0 ('Brave Captain') 32-bit
Writing library                          : libebml v1.3.5 + libmatroska v1.4.8
Cover                                    : Yes
Attachments                              : Kung Fu Panda 2 (2011) Cover

Video
ID                                       : 1
Format                                   : AVC
Format/Info                              : Advanced Video Codec
Format profile                           : High@L3.1
Format settings                          : CABAC / 5 Ref Frames
Format settings, CABAC                   : Yes
Format settings, RefFrames               : 5 frames
Codec ID                                 : V_MPEG4/ISO/AVC
Duration                                 : 1 h 30 min
Bit rate                                 : 895 kb/s
Width                                    : 1 280 pixels
Height                                   : 544 pixels
Display aspect ratio                     : 2.35:1
Frame rate mode                          : Constant
Frame rate                               : 23.976 (24000/1001) FPS
Color space                              : YUV
Chroma subsampling                       : 4:2:0
Bit depth                                : 8 bits
Scan type                                : Progressive
Bits/(Pixel*Frame)                       : 0.054
Stream size                              : 579 MiB (80%)
Title                                    : Kung Fu Panda 2 (2011) BluRay 720p x264 [Dual Audio] [Hindi DD 5.1 - Eng] AAC Esub -=!Katyayan!=-
Writing library                          : x264 core 116 r2074 2641b9e
Language                                 : English
Default                                  : Yes
Forced                                   : No

Audio #1
ID                                       : 2
Format                                   : AAC
Format/Info                              : Advanced Audio Codec
Format profile                           : LC
Codec ID                                 : A_AAC-2
Duration                                 : 1 h 30 min
Bit rate                                 : 192 kb/s
Channel(s)                               : 6 channels
Channel positions                        : Front: L C R, Side: L R, LFE
Sampling rate                            : 48.0 kHz
Frame rate                               : 46.875 FPS (1024 SPF)
Compression mode                         : Lossy
Stream size                              : 124 MiB (17%)
Title                                    : -=!Katyayan!=-
Language                                 : Hindi
Default                                  : Yes
Forced                                   : Yes

Audio #2
ID                                       : 3
Format                                   : AAC
Format/Info                              : Advanced Audio Codec
Format profile                           : HE-AAC / LC
Format settings                          : Explicit
Codec ID                                 : A_AAC-2
Duration                                 : 1 h 30 min
Bit rate                                 : 32.0 kb/s
Channel(s)                               : 2 channels
Channel positions                        : Front: L R
Sampling rate                            : 48.0 kHz / 24.0 kHz
Frame rate                               : 23.438 FPS (1024 SPF)
Compression mode                         : Lossy
Stream size                              : 20.7 MiB (3%)
Title                                    : -=!Katyayan!=-
Language                                 : English
Default                                  : No
Forced                                   : No

Text
ID                                       : 4
Format                                   : UTF-8
Codec ID                                 : S_TEXT/UTF8
Codec ID/Info                            : UTF-8 Plain Text
Duration                                 : 1 h 30 min
Bit rate                                 : 42 b/s
Count of elements                        : 876
Stream size                              : 28.1 KiB (0%)
Title                                    : -=!Katyayan!=-
Language                                 : English
Default                                  : Yes
Forced                                   : Yes



 
Category:Movies > Hollywood Dub
Lang:Hindi
Total Size:725.79 MB





|| Download This Movie Via Single Resumable Links Size: 751 MB ||

Direct-1 Google Drive | Direct-2 | Direct-3 |

Watch Online Click Here

Post a Comment

0 Comments