Kung Fu Panda (2008) BluRay 720p x264 [Dual Audio] [Hindi DD 5.1 - Eng] AAC Esub -=!Katyayan!=-


Poster


iMDB
Imdb Picture Title: Kung Fu Panda
Year: 2008
Runtime: 92 minutes
Votes: 355433
Rating: 7.6/10
Language: English
Country: USA
All Genres: Animation, Action, Adventure, Comedy, Family, Thriller
Plot Outline: It's the story about a lazy, irreverent slacker panda, named Po, who is the biggest fan of Kung Fu around...which doesn't exactly come in handy while working every day in his family's noodle shop. Unexpectedly chosen to fulfill an ancient prophecy, Po's dreams become reality when he joins the world of Kung Fu and studies alongside his idols, the legendary Furious Five -- Tigress, Crane, Mantis, Viper and Monkey -- under the leadership of their guru, Master Shifu. But before they know it, the vengeful and treacherous snow leopard Tai Lung is headed their way, and it's up to Po to defend everyone from the oncoming threat. Can he turn his dreams of becoming a Kung Fu master into reality? Po puts his heart - and his girth - into the task, and the unlikely hero ultimately finds that his greatest weaknesses turn out to be his greatest strengths. Written by Anthony Pereyra {hypersonic91@yahoo.com}
Tagline: He's not a big fat panda... he's THE big fat panda!
Director: Mark Osborne
John Stevenson
Writing By: Jonathan Aibel,Glenn Berger,Ethan Reiff,Cyrus Voris,
Produced By: Jonathan Aibel,Glenn Berger,Melissa Cobb,Bill Damaschke,Lorne Orleans,Kristina Reed,
Music: John Powell Hans Zimmer
Cast:
Jack Black as Po
Dustin Hoffman as Shifu
Angelina Jolie as Tigress
Ian McShane as Tai Lung
Jackie Chan as Monkey
Seth Rogen as Mantis
Lucy Liu as Viper
David Cross as Crane
Randall Duk Kim as Oogway
James Hong as Mr. Ping
Trailers:
Kung Fu Panda



Details
Name:Kung Fu Panda (2008) BluRay 720p x264 [Dual Audio] [Hindi DD 5.1 - Eng] AAC Esub -=!Katyayan!=-
Description:

Kung Fu Panda 2008 BluRay 720p x264 [Dual Audio] [Hindi DD 5.1 - Eng] AAC Esub -=!Katyayan!=-


 


-=====================Source Credit=====================-
:::::::::::::::::::> Video ---- Yify
:::::::::::::::::::> Audio ---- Org Untouched Bluray 5.1 640Kbps Hindi By ~Team (HDDR)


Format                                   : Matroska
Format version                           : Version 4 / Version 2
File size                                : 728 MiB
Duration                                 : 1 h 32 min
Overall bit rate                         : 1 105 kb/s
Movie name                               : Kung Fu Panda 2008 BluRay 720p x264 [Dual Audio] [Hindi DD 5.1 - Eng] AAC Esub -=!Katyayan!=-

Video
ID                                       : 1
Format                                   : AVC
Format/Info                              : Advanced Video Codec
Format profile                           : High@L3.1
Format settings                          : CABAC / 5 Ref Frames
Format settings, CABAC                   : Yes
Format settings, RefFrames               : 5 frames
Codec ID                                 : V_MPEG4/ISO/AVC
Duration                                 : 1 h 32 min
Bit rate                                 : 878 kb/s
Width                                    : 1 280 pixels
Height                                   : 540 pixels
Display aspect ratio                     : 2.40:1
Frame rate mode                          : Constant
Frame rate                               : 23.976 (24000/1001) FPS
Color space                              : YUV
Chroma subsampling                       : 4:2:0
Bit depth                                : 8 bits
Scan type                                : Progressive
Bits/(Pixel*Frame)                       : 0.053
Stream size                              : 579 MiB (79%)
Title                                    : Kung Fu Panda 2008 BluRay 720p x264 [Dual Audio] [Hindi DD 5.1 - Eng] AAC Esub -=!Katyayan!=-
Writing library                          : x264 core 116 r2074 2641b9e
Language                                 : English
Default                                  : Yes
Forced                                   : No

Audio #1
ID                                       : 2
Format                                   : AAC
Format/Info                              : Advanced Audio Codec
Format profile                           : LC
Codec ID                                 : A_AAC-2
Duration                                 : 1 h 32 min
Bit rate                                 : 192 kb/s
Channel(s)                               : 6 channels
Channel positions                        : Front: L C R, Side: L R, LFE
Sampling rate                            : 48.0 kHz
Frame rate                               : 46.875 FPS (1024 SPF)
Compression mode                         : Lossy
Stream size                              : 127 MiB (17%)
Title                                    : -=!Katyayan!=-
Language                                 : Hindi
Default                                  : Yes
Forced                                   : Yes

Audio #2
ID                                       : 3
Format                                   : AAC
Format/Info                              : Advanced Audio Codec
Format profile                           : HE-AAC / LC
Format settings                          : Explicit
Codec ID                                 : A_AAC-2
Duration                                 : 1 h 32 min
Bit rate                                 : 31.9 kb/s
Channel(s)                               : 2 channels
Channel positions                        : Front: L R
Sampling rate                            : 48.0 kHz / 24.0 kHz
Frame rate                               : 23.438 FPS (1024 SPF)
Compression mode                         : Lossy
Stream size                              : 21.1 MiB (3%)
Title                                    : -=!Katyayan!=-
Language                                 : English
Default                                  : No
Forced                                   : No

Text
ID                                       : 4
Format                                   : UTF-8
Codec ID                                 : S_TEXT/UTF8
Codec ID/Info                            : UTF-8 Plain Text
Duration                                 : 1 h 25 min
Bit rate                                 : 51 b/s
Count of elements                        : 978
Stream size                              : 32.3 KiB (0%)
Title                                    : -=!Katyayan!=-
Language                                 : English
Default                                  : Yes
Forced                                   : Yes


 
Category:Movies > Hollywood Dub
Lang:Hindi
Total Size:728.97 MB





|| Download This Movie Via Single Resumable Links Size: 728 MB ||

Direct-1 Google Drive | Direct-2 | Direct-3 |

Watch Online Click Here

Post a Comment

0 Comments