Kung Fu Panda 3 (2016) BluRay 720p x264 [Dual Audio] [Hindi DD 5.1 - Eng] AAC Esub -=!Katyayan!=-


Poster



iMDB
Imdb Picture Title: Kung Fu Panda 3
Year: 2016
Runtime: 95 minutes
Votes: 93843
Rating: 7.2/10
Language: English, Mandarin
Country: China, USA
All Genres: Animation, Action, Adventure, Comedy, Family, Fantasy
Plot Outline: Continuing his "legendary adventures of awesomeness", Po must face two hugely epic, but different threats: one supernatural and the other a little closer to his home.
Tagline: Grab destiny by the rice dumplings.
Director: Alessandro Carloni
Jennifer Yuh Nelson
Writing By: Jonathan Aibel,Glenn Berger,
Produced By: Jonathan Aibel,Glenn Berger,Melissa Cobb,Guillermo del Toro,Jeff Hermann,Peikang La,Rui Gang Li,Mike Mitchell,
Music: Hans Zimmer
Plot:
When Po's long-lost panda father suddenly reappears, the reunited duo travels to a secret panda paradise to meet scores of hilarious new panda characters. But when the supernatural villain Kai begins to sweep across China defeating all the kung fu masters, Po must do the impossible-learn to train a village full of his fun-loving, clumsy brethren to become the ultimate band of Kung Fu Pandas.
- Written by 20th Century Fox
Continuing his "legendary adventures of awesomeness", Po must face two hugely epic, but different threats: one supernatural and the other a little closer to his home.
- Written by Miss W J Mcdermott
Cast:
Jack Black as Po
Bryan Cranston as Li
Dustin Hoffman as Shifu
Angelina Jolie as Tigress
J.K. Simmons as Kai
Jackie Chan as Monkey
Seth Rogen as Mantis
Lucy Liu as Viper
David Cross as Crane
Kate Hudson as Mei Mei
Trailers:
Trailer #3
Trailer #2
Trailer #1



Details
Name:Kung Fu Panda 3 (2016) BluRay 720p x264 [Dual Audio] [Hindi DD 5.1 - Eng] AAC Esub -=!Katyayan!...
Description:

Kung Fu Panda 3 (2016) BluRay 720p x264 [Dual Audio] [Hindi DD 5.1 - Eng] AAC Esub -=!Katyayan!=-

 


-=====================Source Credit=====================-
:::::::::::::::::::> Video ---- ETRG
:::::::::::::::::::> Audio ---- Org Untouched Bluray 5.1 448Kbps Hindi By ~Team (SSX)



Format                                   : Matroska
Format version                           : Version 4 / Version 2
File size                                : 798 MiB
Duration                                 : 1 h 34 min
Overall bit rate                         : 1 176 kb/s
Movie name                               : Kung Fu Panda 3 (2016) BluRay 720p x264 [Dual Audio] [Hindi DD 5.1 - Eng] AAC Esub -=!Katyayan!=-
Encoded date                             : UTC 2018-06-25 16:42:21
Writing application                      : mkvmerge v19.0.0 ('Brave Captain') 32-bit
Writing library                          : libebml v1.3.5 + libmatroska v1.4.8
Cover                                    : Yes
Attachments                              : Kung Fu Panda 3 (2016) Cover

Video
ID                                       : 1
Format                                   : AVC
Format/Info                              : Advanced Video Codec
Format profile                           : High@L4.1
Format settings                          : CABAC / 5 Ref Frames
Format settings, CABAC                   : Yes
Format settings, RefFrames               : 5 frames
Codec ID                                 : V_MPEG4/ISO/AVC
Duration                                 : 1 h 34 min
Bit rate                                 : 949 kb/s
Width                                    : 1 280 pixels
Height                                   : 544 pixels
Display aspect ratio                     : 2.35:1
Frame rate mode                          : Constant
Frame rate                               : 23.976 (24000/1001) FPS
Color space                              : YUV
Chroma subsampling                       : 4:2:0
Bit depth                                : 8 bits
Scan type                                : Progressive
Bits/(Pixel*Frame)                       : 0.057
Stream size                              : 644 MiB (81%)
Title                                    : Kung Fu Panda 3 (2016) BluRay 720p x264 [Dual Audio] [Hindi DD 5.1 - Eng] AAC Esub -=!Katyayan!=-
Writing library                          : x264 core 148 r2638 7599210
Language                                 : English
Default                                  : Yes
Forced                                   : No
Color range                              : Limited
Color primaries                          : BT.709
Matrix coefficients                      : BT.709

Audio #1
ID                                       : 2
Format                                   : AAC
Format/Info                              : Advanced Audio Codec
Format profile                           : LC
Codec ID                                 : A_AAC-2
Duration                                 : 1 h 34 min
Bit rate                                 : 192 kb/s
Channel(s)                               : 6 channels
Channel positions                        : Front: L C R, Side: L R, LFE
Sampling rate                            : 48.0 kHz
Frame rate                               : 46.875 FPS (1024 SPF)
Compression mode                         : Lossy
Stream size                              : 130 MiB (16%)
Title                                    : -=!Katyayan!=-
Language                                 : Hindi
Default                                  : Yes
Forced                                   : Yes

Audio #2
ID                                       : 3
Format                                   : AAC
Format/Info                              : Advanced Audio Codec
Format profile                           : HE-AAC / LC
Format settings                          : Explicit
Codec ID                                 : A_AAC-2
Duration                                 : 1 h 34 min
Bit rate                                 : 32.0 kb/s
Channel(s)                               : 2 channels
Channel positions                        : Front: L R
Sampling rate                            : 48.0 kHz / 24.0 kHz
Frame rate                               : 23.438 FPS (1024 SPF)
Compression mode                         : Lossy
Delay relative to video                  : 31 ms
Stream size                              : 21.7 MiB (3%)
Title                                    : -=!Katyayan!=-
Language                                 : English
Default                                  : No
Forced                                   : No

Text
ID                                       : 4
Format                                   : UTF-8
Codec ID                                 : S_TEXT/UTF8
Codec ID/Info                            : UTF-8 Plain Text
Duration                                 : 1 h 32 min
Bit rate                                 : 89 b/s
Count of elements                        : 1778
Stream size                              : 61.1 KiB (0%)
Title                                    : -=!Katyayan!=-
Language                                 : English
Default                                  : Yes
Forced                                   : No



 

Category:Movies > Hollywood Dub
Lang:Hindi
Total Size:798.36 MB



|| Download This Movie Via Single Resumable Links Size: 798 MB ||

Direct-1 Google Drive | Direct-2 | Direct-3 |

Watch Online Click Here

Post a Comment

0 Comments