Love and Shukla (2017) Hindi 720p NF WEB-DL x264 AAC DD2.0 Esub TeamTelly


Poster



iMDB
Title: Love and Shukla
Year: 2017
Runtime: 107 minutes
Language: Hindi
All Genres: Comedy, Drama, Romance
Director: Jatla Siddartha
Writing By: Amanda Mooney, Naseem Shah ,Jatla Siddartha,
Produced By: Amanda Mooney,Jatla Siddartha,Rahul Sootar,
Music: Karl Heortweard
Cast:
Saharsh Kumar Shukla as Manu Shukla
Taneea Rajawat as Lakshmi
Hima Singh as Rupa
Aparna Upadhyay as Mother
Loknath Tiwari as Father
Amol Deshmukh as Friend 1
Ganesh Kumar as Friend 2
Shahnawaz Alam as Friend 3
Sambhaji Sasane as Sunil



Details
Name:Love and Shukla (2017) Hindi 720p NF WEB-DL x264 AAC DD2.0 Esub TeamTelly
Description:
Love and Shukla (2017) Hindi 720p NF WEB-DL x264 AAC DD2.0 Esub TeamTelly

 


Format                                   : MPEG-4
Format profile                           : Base Media
Codec ID                                 : isom (isom/iso2/avc1/mp41)
File size                                : 1.29 GiB
Duration                                 : 1 h 50 min
Overall bit rate                         : 1 679 kb/s
Writing application                      : Lavf58.12.100

Video
ID                                       : 1
Format                                   : AVC
Format/Info                              : Advanced Video Codec
Format profile                           : Main@L3.1
Format settings                          : CABAC / 3 Ref Frames
Format settings, CABAC                   : Yes
Format settings, ReFrames                : 3 frames
Codec ID                                 : avc1
Codec ID/Info                            : Advanced Video Coding
Duration                                 : 1 h 50 min
Bit rate                                 : 1 578 kb/s
Width                                    : 1 280 pixels
Height                                   : 720 pixels
Display aspect ratio                     : 16:9
Frame rate mode                          : Constant
Frame rate                               : 24.000 FPS
Color space                              : YUV
Chroma subsampling                       : 4:2:0
Bit depth                                : 8 bits
Scan type                                : Progressive
Bits/(Pixel*Frame)                       : 0.071
Stream size                              : 1.21 GiB (94%)

Audio
ID                                       : 2
Format                                   : AAC
Format/Info                              : Advanced Audio Codec
Format profile                           : HE-AAC / LC
Format settings                          : Explicit
Codec ID                                 : mp4a-40-2
Duration                                 : 1 h 50 min
Bit rate mode                            : Constant
Bit rate                                 : 96.0 kb/s
Channel(s)                               : 2 channels
Channel positions                        : Front: L R
Sampling rate                            : 48.0 kHz / 24.0 kHz
Frame rate                               : 23.438 FPS (1024 SPF)
Compression mode                         : Lossy
Stream size                              : 75.6 MiB (6%)
Default                                  : Yes
Alternate group                          : 1



             
Category:Movies > Bollywood
Lang:Hindi
Total Size:1.29 GB





|| Download This Movie Via Single Resumable Links Size: 1.29 GB ||

Direct-1 Google Drive | Direct-2 | Direct-3 |

Watch Online Click Here

Post a Comment

0 Comments