Manchi Lakshanalunna Abbayi (2018) Hindi Dubbed 720p UntoucheD WEB-HD x264 AAC 1.3GB


Poster


iMDB
Title: Manchi Lakshanalunna Abbayi
Year: 2018
Runtime: 130 minutes
Votes: 57
Rating: 5.5/10
Language: Telugu
Country: India
All Genres: Comedy
Plot Outline: An intelligent youngster is faced with a situation to win in the state legislative assembly elections in order to win the approval of his father-in-law.
Director: Upendra Madhav
Writing By: Upendra Madhav,Varma Praveen,
Produced By: Bharath Chowdary,Vivek Kuchibhotla,Vishwa Prasad,Kiran Reddy,
Music: Mani Sharma
Cast:
Kalyan Ram as
Kajal Aggarwal as
Brahmanandam as
Vennela Kishore as
Manali Rathod as
Ravi Prakash as
Ravi Kishan as
Jayaprakash Reddy as
Ajay as
Lasya Manjunath as



Details
Name:Manchi Lakshanalunna Abbayi (2018) Hindi Dubbed 720p UntoucheD WEB-HD x264 AAC 1.3GB
Description:
Manchi Lakshanalunna Abbayi (2018) Hindi Dubbed 720p UntoucheD WEB-HD x264 AAC 1.3GB

 
Format                                   : MPEG-4
Format profile                           : Base Media / Version 2
Codec ID                                 : mp42 (isom/mp42)
File size                                : 1.36 GiB
Duration                                 : 2 h 6 min
Overall bit rate mode                    : Variable
Overall bit rate                         : 1 539 kb/s
Encoded date                             : UTC 2018-09-12 12:56:58
Tagged date                              : UTC 2018-09-12 12:56:58
gsst                                     : 0
gstd                                     : 7565223

Video
ID                                       : 1
Format                                   : AVC
Format/Info                              : Advanced Video Codec
Format profile                           : Main@L3.1
Format settings                          : CABAC / 3 Ref Frames
Format settings, CABAC                   : Yes
Format settings, ReFrames                : 3 frames
Codec ID                                 : avc1
Codec ID/Info                            : Advanced Video Coding
Duration                                 : 2 h 6 min
Bit rate                                 : 1 410 kb/s
Width                                    : 1 280 pixels
Height                                   : 720 pixels
Display aspect ratio                     : 16:9
Frame rate mode                          : Constant
Frame rate                               : 24.000 FPS
Color space                              : YUV
Chroma subsampling                       : 4:2:0
Bit depth                                : 8 bits
Scan type                                : Progressive
Bits/(Pixel*Frame)                       : 0.064
Stream size                              : 1.24 GiB (92%)
Title                                    : ISO Media file produced by Google Inc. Created on: 09/12/2018.
Encoded date                             : UTC 2018-09-12 12:56:58
Tagged date                              : UTC 2018-09-12 12:56:58
Color range                              : Limited
Color primaries                          : BT.709
Transfer characteristics                 : BT.709
Matrix coefficients                      : BT.709

Audio
ID                                       : 2
Format                                   : AAC
Format/Info                              : Advanced Audio Codec
Format profile                           : LC
Codec ID                                 : mp4a-40-2
Duration                                 : 2 h 6 min
Source duration                          : 2 h 6 min
Bit rate mode                            : Variable
Bit rate                                 : 126 kb/s
Channel(s)                               : 2 channels
Channel positions                        : Front: L R
Sampling rate                            : 44.1 kHz
Frame rate                               : 43.066 FPS (1024 SPF)
Compression mode                         : Lossy
Stream size                              : 113 MiB (8%)
Source stream size                       : 113 MiB (8%)
Title                                    : ISO Media file produced by Google Inc. Created on: 09/12/2018.
Language                                 : English
Encoded date                             : UTC 2018-09-12 12:56:58
Tagged date                              : UTC 2018-09-12 12:56:58


               
Category:Movies > South Dub
Lang:Hindi
Total Size:1.36 GB



|| Download This Movie Via Single Resumable Links Size: 1.36 GB ||

Direct-1 Google Drive | Direct-2 | Direct-3 |

Watch Online Click Here

Post a Comment

0 Comments