Miami Vice (2006) BluRay 720p x264 {Dual Audio} [Hindi - English] - Hon3yHD


Poster


iMDB

Title: Miami Vice
Year: 2006
Runtime: 134 minutes
Language: English, Spanish
All Genres: Action, Crime, Thriller
Tagline: No Law
Director: Michael Mann
Writing By: Michael Mann,Anthony Yerkovich,
Produced By: Sarah Bradshaw,Pieter Jan Brugge,Bryan H. Carroll,Gusmano Cesaretti,Michael Mann,Wayne Morris,Lorena Reyes,Michael Waxman,Anthony Yerkovich,
Music: John Murphy
Cast:
Colin Farrell as Sonny Crockett
Jamie Foxx as Ricardo Tubbs
Li Gong as Isabella
Naomie Harris as Trudy Joplin
Ciarán Hinds as FBI Agent Fujima
Justin Theroux as Detective Larry Zito
Barry Shabaka Henley as Castillo
Luis Tosar as Montoya
John Ortiz as Jose Yero
Elizabeth Rodriguez as Gina Calabrese
Trailers:
Miami Vice (2006)
Miami Vice (2006)



Details
Name:Miami Vice.2006.BluRay.720p.x264.{Dual.Audio}.[Hindi.Org-English].-.Hon3yHD
Description:
Miami Vice (2006) BluRay 720p x264 {Dual Audio} [Hindi - English] - Hon3yHD

 

Format                      : Matroska
Format version              : Version 4 / Version 2
File size                   : 1.42 GiB
Duration                    : 2 h 12 min
Overall bit rate            : 1 534 kb/s
Movie name                  :  ~ Ranvijay

Video
ID                          : 1
Format                      : AVC
Format/Info                 : Advanced Video Codec
Format profile              : High@L4.1
Format settings             : CABAC / 8 Ref Frames
Format settings, CABAC      : Yes
Format settings, ReFrames   : 8 frames
Codec ID                    : V_MPEG4/ISO/AVC
Duration                    : 2 h 12 min
Bit rate                    : 1 200 kb/s
Width                       : 1 280 pixels
Height                      : 534 pixels
Display aspect ratio        : 2.40:1
Frame rate mode             : Constant
Frame rate                  : 23.976 (24000/1001) FPS

Audio #1
ID                          : 2
Format                      : AAC
Format/Info                 : Advanced Audio Codec
Format profile              : LC
Codec ID                    : A_AAC-2
Duration                    : 2 h 12 min
Bit rate                    : 160 kb/s
Channel(s)                  : 2 channels
Channel positions           : Front: L R
Sampling rate               : 48.0 kHz
Frame rate                  : 46.875 FPS (1024 SPF)
Compression mode            : Lossy
Delay relative to video     : 1 s 479 ms
Stream size                 : 151 MiB (10%)
Title                       : Stereo
Language                    : Hindi

Audio #2
ID                          : 3
Format                      : AAC
Format/Info                 : Advanced Audio Codec
Format profile              : LC
Codec ID                    : A_AAC-2
Duration                    : 2 h 12 min
Bit rate                    : 160 kb/s
Channel(s)                  : 2 channels
Channel positions           : Front: L R
Sampling rate               : 48.0 kHz
Frame rate                  : 46.875 FPS (1024 SPF)
Compression mode            : Lossy
Delay relative to video     : -21 ms
Stream size                 : 151 MiB (10%)
Title                       : Stereo
Language                    : English

     
Category:Movies > Hollywood Dub
Lang:Hindi
Total Size:1.42 GB



|| Download This Movie Via Single Resumable Links Size: 1.42 GB ||

Direct-1 Google Drive | Direct-2 | Direct-3 |

Watch Online Click Here

Post a Comment

0 Comments