Monster High Frights, Camera, Action! (2014) BluRay 720p x264 [Dual Audio] [Hindi DD 5.1 - Eng] AAC Esub -=!Katyayan!=-


Poster


iMDB
Title: Monster High: Frights, Camera, Action!
Year: 2014
Runtime: 73 minutes
Language: English
All Genres: Animation
Director: William Lau
Sylvain Blais
Writing By: Audu Paden,Dan Serafin,
Produced By: Margaret M. Dean,Audu Paden,Lauren Rose,Kyrsti Schwarz,Ira Singerman,David Voss,
Cast:
Kate Higgins as Frankie Stein
Salli Saffioti as Clawdeen Wolf / Cleo de Nile
Debi Derryberry as Draculaura
Marcus Griffin as Clawd Wolf
Jonquil Goode as Twyla / Clawdia Wolf
Karen Strassman as Elissabat / Veronica von Vamp
Audu Paden as Ghoulia Yelps / Manny Taur / Vampire Dignitary #1 / Captain / Bodyguard
Evan Smith as Deuce Gorgon / Gil Webber / Scarantino / Edweird / Alucard / Security Troll / Studio Executive
Laura Bailey as Lagoona Blue / Honey Swamp / Headless Headmistress Nora Bloodgood
Cam Clarke as Hoodude Voodoo / Ygor / Heath Burns / Mr. Rotter / Crow #1 / Vampire Dignitary #1
Trailers:
Monster High: Frights, Camera, Action!



Details
Name:Monster High Frights, Camera, Action! (2014) BluRay 720p x264 [Dual Audio] [Hindi DD 5.1 - Eng]...
Description:

Monster High Frights, Camera, Action! (2014) BluRay 720p x264 [Dual Audio] [Hindi DD 5.1 - Eng] AAC Esub -=!Katyayan!=-
 

-=====================Source Credit=====================-
:::::::::::::::::::> Video ---- Rarbg
:::::::::::::::::::> Audio ---- Org Untouched DD 5.1 640Kbps Hindi By ~Team M2TV

Format                                   : Matroska
Format version                           : Version 4
File size                                : 745 MiB
Duration                                 : 1 h 13 min
Overall bit rate                         : 1 414 kb/s
Movie name                               : Monster High Frights, Camera, Action! (2014) BluRay 720p x264 [Dual Audio] [Hindi DD 5.1 - Eng] AAC Esub -=!Katyayan!=-
Encoded date                             : UTC 2018-09-16 05:33:53
Writing application                      : mkvmerge v24.0.0 ('Beyond The Pale') 64-bit
Writing library                          : libebml v1.3.6 + libmatroska v1.4.9
Cover                                    : Yes
Attachments                              : Monster High Frights, Camera, Action! (2014) Cover

Video
ID                                       : 1
Format                                   : AVC
Format/Info                              : Advanced Video Codec
Format profile                           : High@L4.1
Format settings                          : CABAC / 4 Ref Frames
Format settings, CABAC                   : Yes
Format settings, RefFrames               : 4 frames
Codec ID                                 : V_MPEG4/ISO/AVC
Duration                                 : 1 h 13 min
Bit rate                                 : 1 200 kb/s
Width                                    : 1 280 pixels
Height                                   : 720 pixels
Display aspect ratio                     : 16:9
Frame rate mode                          : Constant
Frame rate                               : 23.976 (24000/1001) FPS
Original frame rate                      : 23.976 (23976/1000) FPS
Color space                              : YUV
Chroma subsampling                       : 4:2:0
Bit depth                                : 8 bits
Scan type                                : Progressive
Bits/(Pixel*Frame)                       : 0.054
Stream size                              : 626 MiB (84%)
Title                                    : Monster High Frights, Camera, Action! (2014) BluRay 720p x264 [Dual Audio] [Hindi DD 5.1 - Eng] AAC Esub -=!Katyayan!=-
Writing library                          : x264 core 152 r2851kMod ba24899
Language                                 : English
Default                                  : Yes
Forced                                   : No

Audio #1
ID                                       : 2
Format                                   : AAC LC
Format/Info                              : Advanced Audio Codec Low Complexity
Codec ID                                 : A_AAC-2
Duration                                 : 1 h 13 min
Bit rate                                 : 192 kb/s
Channel(s)                               : 6 channels
Channel layout                           : C L R Ls Rs LFE
Sampling rate                            : 48.0 kHz
Frame rate                               : 46.875 FPS (1024 SPF)
Compression mode                         : Lossy
Stream size                              : 101 MiB (14%)
Title                                    : -=!Katyayan!=-
Language                                 : Hindi
Default                                  : Yes
Forced                                   : Yes

Audio #2
ID                                       : 3
Format                                   : AAC LC
Format/Info                              : Advanced Audio Codec Low Complexity
Codec ID                                 : A_AAC-2
Duration                                 : 22 min 4 s
Bit rate                                 : 96.0 kb/s
Channel(s)                               : 2 channels
Channel layout                           : L R
Sampling rate                            : 48.0 kHz
Frame rate                               : 46.875 FPS (1024 SPF)
Compression mode                         : Lossy
Stream size                              : 15.2 MiB (2%)
Title                                    : -=!Katyayan!=-
Language                                 : English
Default                                  : No
Forced                                   : No

Text
ID                                       : 4
Format                                   : UTF-8
Codec ID                                 : S_TEXT/UTF8
Codec ID/Info                            : UTF-8 Plain Text
Duration                                 : 1 h 13 min
Bit rate                                 : 76 b/s
Count of elements                        : 1324
Stream size                              : 40.9 KiB (0%)
Title                                    : -=!Katyayan!=-
Language                                 : English
Default                                  : Yes
Forced                                   : Ye

 
Category:Movies > Hollywood Dub
Lang:Hindi
Total Size:745.24 MB



|| Download This Movie Via Single Resumable Links Size: 745 MB ||

Direct-1 Google Drive | Direct-2 | Direct-3 |

Watch Online Click Here

Post a Comment

0 Comments