Naa Peru Surya Na Illu India (2018) 720p UNCUT HDRip x264 [Dual Audio] [Hindi (HQ Line Audio) + Telugu] - 1.4GB


Poster


iMDB
Title: Naa Peru Surya Na Illu India
Year: 2018
Runtime: 163 minutes
Language: Telugu
All Genres: Action
Director: Vakkantham Vamsi
Writing By: Vakkantham Vamsi,
Produced By: Jatin Dharna,Sirisha Lagadapati,Sridhar Lagadapati,Nagendra Babu,Bunny Vasu,
Music: Vishal Dadlani Shekhar Ravjiani
Cast:
Allu Arjun as Surya
Anu Emmanuel as Varsha
Arjun as Rama Krishnam Raju
Elli Avrram as
Chaaruhasan as
Raja Chembolu as Krishna Kumar
Boman Irani as Col. Sanjay Shrivastav
Ravi Kale as Pradeep Negi
Vennela Kishore as Kishore
Satya Krishnan as
Trailers:
Naa Peru Surya Naa illu India First Impact



Details
Name:Naa Peru Surya Na Illu India (2018) 720p UNCUT HDRip x264 [Dual Audio] [Hindi (HQ Line Audio) +...
Description:
Naa Peru Surya Na Illu India 2018 720p UNCUT HDRip x264 [Dual Audio] [Hindi (HQ Line Audio) + Telugu] - 1.4GB - First On NET


 

Format                                   : Matroska
Format version                           : Version 4 / Version 2
File size                                : 1.45 GiB
Duration                                 : 2 h 36 min
Overall bit rate mode                    : Variable
Overall bit rate                         : 1 320 kb/s

Video
ID                                       : 1
Format                                   : AVC
Format/Info                              : Advanced Video Codec
Format profile                           : High@L3.1
Format settings                          : CABAC / 4 Ref Frames
Format settings, CABAC                   : Yes
Format settings, ReFrames                : 4 frames
Codec ID                                 : V_MPEG4/ISO/AVC
Duration                                 : 2 h 36 min
Bit rate                                 : 1 136 kb/s
Width                                    : 1 280 pixels
Height                                   : 544 pixels
Display aspect ratio                     : 2.35:1
Frame rate mode                          : Constant
Frame rate                               : 23.976 (24000/1001) FPS
Color space                              : YUV
Chroma subsampling                       : 4:2:0
Bit depth                                : 8 bits
Scan type                                : Progressive
Bits/(Pixel*Frame)                       : 0.068
Stream size                              : 1.24 GiB (86%)
Writing library                          : x264 core 155 r2901 7d0ff22
Language                                 : Telugu
Default                                  : Yes
Forced                                   : No

Audio #1
ID                                       : 2
Format                                   : MPEG Audio
Format version                           : Version 1
Format profile                           : Layer 3
Format settings                          : Joint stereo / MS Stereo
Codec ID                                 : A_MPEG/L3
Codec ID/Hint                            : MP3
Duration                                 : 2 h 36 min
Bit rate mode                            : Variable
Bit rate                                 : 87.0 kb/s
Nominal bit rate                         : 96.0 kb/s
Channel(s)                               : 2 channels
Sampling rate                            : 44.1 kHz
Frame rate                               : 38.281 FPS (1152 SPF)
Compression mode                         : Lossy
Stream size                              : 97.6 MiB (7%)
Writing library                          : LAME3.99r
Encoding settings                        : -m j -V 4 -q 3 -lowpass 15.1 --abr 96
Language                                 : Hindi
Default                                  : Yes
Forced                                   : No

Audio #2
ID                                       : 3
Format                                   : MPEG Audio
Format version                           : Version 1
Format profile                           : Layer 3
Format settings                          : Joint stereo / MS Stereo
Codec ID                                 : A_MPEG/L3
Codec ID/Hint                            : MP3
Duration                                 : 2 h 36 min
Bit rate mode                            : Variable
Bit rate                                 : 96.0 kb/s
Channel(s)                               : 2 channels
Sampling rate                            : 48.0 kHz
Frame rate                               : 41.667 FPS (1152 SPF)
Compression mode                         : Lossy
Stream size                              : 106 MiB (7%)
Writing library                          : LAME3.99r
Encoding settings                        : -m j -V 4 -q 3 -lowpass 15.1 --abr 96
Language                                 : Telugu
Default                                  : No
Forced                                   : No

           
Category:Movies > South Dub
Lang:Hindi
Total Size:1.45 GB



|| Download This Movie Via Single Resumable Links Size: 1.45 GB ||

Direct-1 Google Drive | Direct-2 | Direct-3 |

Watch Online Click Here

Post a Comment

0 Comments