Nawabzaade (2018) Hindi 1080p AMZN-DL H264 E-AC-3 DD5.1 - NbT


Poster


iMDB
Imdb Picture Title: Nawabzaade
Year: 2018
Runtime: 112 minutes
Votes: 129
Rating: 7.2/10
Language: Hindi
Country: India
All Genres: Comedy, Romance
Plot Outline: Nawabzaade is a Hindi movie starring Raghav Juyal, Punit Pathak and Dharmesh Yelande in prominent roles. It is a romantic-comedy directed by Jayesh Pradhan, with Remo D' Souza as the producer, forming a part of the crew.
Director: Jayesh Pradhan
Writing By: Pradeep Singh,
Produced By: Mayur K. Barot,Remo D'Souza,Lizelle Dsouza,Yogesh Singh,
Cast:
Dharmesh Yelande as
Punit Pathak as
Raghav Juyal as
Isha Rikhi as
Varun Dhawan as Special Appearance
Shraddha Kapoor as Special Appearance
Shakti Mohan as Dancer
Sanjeeda Sheikh as Dancer
Trailers:
Official 'Nawabzaade' Trailer



Details
Name: Nawabzaade (2018) Hindi 1080p AMZN-DL H264 E-AC-3 DD5.1 - NbT
Description:
 Nawabzaade 2018 Hindi 1080p AMZN H264 DDP5.1 - NbT



Format                      : Matroska
Format version              : Version 4
File size                   : 8.27 GiB
Duration                    : 1 h 49 min
Overall bit rate mode       : Variable
Overall bit rate            : 10.8 Mb/s
Encoded date                : UTC 2018-09-22 06:13:45
Writing application         : mkvmerge v26.0.0 ('In The Game') 64-bit
Writing library             : libebml v1.3.6 + libmatroska v1.4.9
Cover                       : Yes
Attachments                 : cover.jpg

Video
ID                          : 1
Format                      : AVC
Format/Info                 : Advanced Video Codec
Format profile              : High@L4
Format settings             : CABAC / 4 Ref Frames
Format settings, CABAC      : Yes
Format settings, ReFrames   : 4 frames
Codec ID                    : V_MPEG4/ISO/AVC
Duration                    : 1 h 49 min
Bit rate mode               : Variable
Bit rate                    : 10.1 Mb/s
Maximum bit rate            : 15.0 Mb/s
Width                       : 1 920 pixels
Height                      : 800 pixels
Display aspect ratio        : 2.40:1
Frame rate mode             : Constant
Frame rate                  : 24.000 FPS
Color space                 : YUV
Chroma subsampling          : 4:2:0
Bit depth                   : 8 bits
Scan type                   : Progressive
Bits/(Pixel*Frame)          : 0.275
Stream size                 : 7.78 GiB (94%)
Default                     : Yes
Forced                      : No
Color range                 : Limited
Color primaries             : BT.709
Transfer characteristics    : BT.709
Matrix coefficients         : BT.709

Audio
ID                          : 2
Format                      : E-AC-3
Format/Info                 : Enhanced AC-3
Commercial name             : Dolby Digital Plus
Codec ID                    : A_EAC3
Duration                    : 1 h 49 min
Bit rate mode               : Constant
Bit rate                    : 640 kb/s
Channel(s)                  : 6 channels
Channel layout              : L R C LFE Ls Rs
Sampling rate               : 48.0 kHz
Frame rate                  : 31.250 FPS (1536 SPF)
Compression mode            : Lossy
Stream size                 : 503 MiB (6%)
Title                       : Hindi
Language                    : Hindi
Service kind                : Complete Main
Default                     : No
Forced                      : No

Text
ID                          : 3
Format                      : UTF-8
Codec ID                    : S_TEXT/UTF8
Codec ID/Info               : UTF-8 Plain Text
Duration                    : 1 h 48 min
Bit rate                    : 66 b/s
Count of elements           : 1649
Stream size                 : 53.0 KiB (0%)
Title                       : English [SDH]
Language                    : English
Default                     : No
Forced                      : No


YP92W.th.png YPQnr.th.png YP7do.th.png YP2oK.th.png YPxaV.th.png
Category:Movies > Bollywood
Lang:Hindi
Total Size:8.27 GB





|| Download This Movie Via Single Resumable Links Size: 8.27 GB ||

Direct-1 Google Drive | Direct-2 | Direct-3 |

Watch Online Click Here

Post a Comment

0 Comments