Parenthood (1989) BluRay 720p x264 [Dual Audio] [Hindi DD 5.1 - Eng] AAC Esub -=!Katyayan!=-


Poster


iMDB
Imdb Picture Title: Parenthood
Year: 1989
Runtime: 124 minutes
Votes: 39080
Rating: 7.0/10
Language: English
Country: USA
All Genres: Comedy, Drama
Plot Outline: The story of the Buckman family and friends, attempting to bring up their children. They suffer/enjoy all the events that occur: estranged relatives, the "black sheep" of the family, the eccentrics, the skeletons in the closet, and the rebellious teenagers. Written by Murray Chapman <muzzle@cs.uq.oz.au>
Tagline: The director of "Splash," "Willow" and "Cocoon" brings you a comedy about life, love and the gentle art of raising children.
Director: Ron Howard
Writing By: Lowell Ganz,Babaloo Mandel,Ron Howard,Lowell Ganz,Babaloo Mandel,
Produced By: Joseph M. Caracciolo,Brian Grazer,
Music: Randy Newman
Cast:
Steve Martin as Gil
Mary Steenburgen as Karen
Dianne Wiest as Helen
Jason Robards as Frank
Rick Moranis as Nathan
Tom Hulce as Larry
Martha Plimpton as Julie
Keanu Reeves as Tod
Harley Jane Kozak as Susan
Dennis Dugan as David Brodsky
Trailers:
Parenthood
Parenthood



Details
Name:Parenthood (1989) BluRay 720p x264 [Dual Audio] [Hindi DD 5.1 - Eng] AAC Esub -=!Katyayan!=-
Description:

Parenthood (1989) BluRay 720p x264 [Dual Audio] [Hindi DD 5.1 - Eng] AAC Esub -=!Katyayan!=-


 


-=====================Source Credit=====================-
:::::::::::::::::::> Video ---- RARBG
:::::::::::::::::::> Audio ---- Rohit Sharma "Hammer"


Format                                   : Matroska
Format version                           : Version 4 / Version 2
File size                                : 997 MiB
Duration                                 : 2 h 3 min
Overall bit rate                         : 1 128 kb/s
Movie name                               : Parenthood (1989) BluRay 720p x264 [Dual Audio] [Hindi DD 5.1 - Eng] AAC Esub -=!Katyayan!=-
Encoded date                             : UTC 2018-06-24 03:14:22
Writing application                      : mkvmerge v19.0.0 ('Brave Captain') 32-bit
Writing library                          : libebml v1.3.5 + libmatroska v1.4.8
Cover                                    : Yes
Attachments                              : Parenthood (1989)  Cover

Video
ID                                       : 1
Format                                   : AVC
Format/Info                              : Advanced Video Codec
Format profile                           : High@L4.1
Format settings                          : CABAC / 4 Ref Frames
Format settings, CABAC                   : Yes
Format settings, RefFrames               : 4 frames
Codec ID                                 : V_MPEG4/ISO/AVC
Duration                                 : 2 h 3 min
Bit rate                                 : 901 kb/s
Width                                    : 1 280 pixels
Height                                   : 544 pixels
Display aspect ratio                     : 1.85:1
Frame rate mode                          : Constant
Frame rate                               : 23.976 (24000/1001) FPS
Color space                              : YUV
Chroma subsampling                       : 4:2:0
Bit depth                                : 8 bits
Scan type                                : Progressive
Bits/(Pixel*Frame)                       : 0.054
Stream size                              : 796 MiB (80%)
Title                                    : Parenthood (1989) BluRay 720p x264 [Dual Audio] [Hindi DD 5.1 - Eng] AAC Esub -=!Katyayan!=-
Writing library                          : x264 core 148 r2708 86b7198
Language                                 : English
Default                                  : Yes
Forced                                   : No
Color range                              : Limited
Color primaries                          : BT.709
Transfer characteristics                 : BT.709
Matrix coefficients                      : BT.709

Audio #1
ID                                       : 2
Format                                   : AAC
Format/Info                              : Advanced Audio Codec
Format profile                           : LC
Codec ID                                 : A_AAC-2
Duration                                 : 2 h 3 min
Bit rate                                 : 192 kb/s
Channel(s)                               : 6 channels
Channel positions                        : Front: L C R, Side: L R, LFE
Sampling rate                            : 48.0 kHz
Frame rate                               : 46.875 FPS (1024 SPF)
Compression mode                         : Lossy
Delay relative to video                  : 2 ms
Stream size                              : 170 MiB (17%)
Title                                    : -=!Katyayan!=-
Language                                 : Hindi
Default                                  : Yes
Forced                                   : Yes

Audio #2
ID                                       : 3
Format                                   : AAC
Format/Info                              : Advanced Audio Codec
Format profile                           : HE-AAC / LC
Format settings                          : Explicit
Codec ID                                 : A_AAC-2
Duration                                 : 2 h 3 min
Bit rate                                 : 32.0 kb/s
Channel(s)                               : 2 channels
Channel positions                        : Front: L R
Sampling rate                            : 48.0 kHz / 24.0 kHz
Frame rate                               : 23.438 FPS (1024 SPF)
Compression mode                         : Lossy
Stream size                              : 28.3 MiB (3%)
Title                                    : -=!Katyayan!=-
Language                                 : English
Default                                  : No
Forced                                   : No

Text
ID                                       : 4
Format                                   : UTF-8
Codec ID                                 : S_TEXT/UTF8
Codec ID/Info                            : UTF-8 Plain Text
Duration                                 : 1 h 57 min
Bit rate                                 : 71 b/s
Count of elements                        : 1702
Stream size                              : 61.2 KiB (0%)
Title                                    : -=!Katyayan!=-
Language                                 : English
Default                                  : Yes
Forced                                   : Yes



 
Category:Movies > Hollywood Dub
Lang:Hindi
Total Size:997.63 MB



|| Download This Movie Via Single Resumable Links Size: 997 MB ||

Direct-1 Google Drive | Direct-2 | Direct-3 |

Watch Online Click Here

Post a Comment

0 Comments