Safe House (2012) BluRay 720p x264 {Dual Audio} [Hindi - English] - Hon3yHD


Poster


iMDB

Original Title: Safe House
Title: Sécurité rapprochée
Year: 2012
Runtime: 115 minutes
Language: English, Afrikaans
All Genres: Action, Adventure, Crime, Thriller
Tagline: No One Is Safe
Director: Daniel Espinosa
Writing By: David Guggenheim,
Produced By: Scott Aversano,John Bernard,Marc D. Evans,Alexa Faigen,Genevieve Hofmeyr,Trevor Macy,Adam Merims,Scott Stuber,Denzel Washington,
Music: Ramin Djawadi
Cast:
Denzel Washington as Tobin Frost
Ryan Reynolds as Matt Weston
Vera Farmiga as Catherine Linklater
Brendan Gleeson as David Barlow
Sam Shepard as Harlan Whitford
Rubén Blades as Carlos Villar
Nora Arnezeder as Ana Moreau
Robert Patrick as Daniel Kiefer
Liam Cunningham as Alec Wade
Joel Kinnaman as Keller
Trailers:
No. 1



Details
Name:Safe.House.2012.BluRay.720p.x264.{Dual.Audio}.[Hindi.Org-English].-.Hon3yHD
Description:
Safe House (2012) BluRay 720p x264 {Dual Audio} [Hindi - English] - Hon3yHD

 

Format                      : Matroska
Format version              : Version 4 / Version 2
File size                   : 1.23 GiB
Duration                    : 1 h 54 min
Overall bit rate            : 1 532 kb/s

Video
ID                          : 1
Format                      : AVC
Format/Info                 : Advanced Video Codec
Format profile              : High@L4.1
Format settings             : CABAC / 8 Ref Frames
Format settings, CABAC      : Yes
Format settings, ReFrames   : 8 frames
Codec ID                    : V_MPEG4/ISO/AVC
Duration                    : 1 h 54 min
Bit rate                    : 1 200 kb/s
Width                       : 1 280 pixels
Height                      : 532 pixels
Display aspect ratio        : 2.40:1
Frame rate mode             : Constant
Frame rate                  : 23.976 (24000/1001) FPS

Audio #1
ID                          : 2
Format                      : AAC
Format/Info                 : Advanced Audio Codec
Format profile              : LC
Codec ID                    : A_AAC-2
Duration                    : 1 h 54 min
Bit rate                    : 160 kb/s
Channel(s)                  : 2 channels
Channel positions           : Front: L R
Sampling rate               : 48.0 kHz
Frame rate                  : 46.875 FPS (1024 SPF)
Compression mode            : Lossy
Delay relative to video     : -9 ms
Stream size                 : 132 MiB (10%)
Title                       : Stereo
Language                    : Hindi

Audio #2
ID                          : 3
Format                      : AAC
Format/Info                 : Advanced Audio Codec
Format profile              : LC
Codec ID                    : A_AAC-2
Duration                    : 1 h 54 min
Bit rate                    : 160 kb/s
Channel(s)                  : 2 channels
Channel positions           : Front: L R
Sampling rate               : 48.0 kHz
Frame rate                  : 46.875 FPS (1024 SPF)
Compression mode            : Lossy
Delay relative to video     : -21 ms
Stream size                 : 132 MiB (10%)
Title                       : Stereo
Language                    : English

       
Category:Movies > Hollywood Dub
Lang:Hindi
Total Size:1.23 GB



|| Download This Movie Via Single Resumable Links Size: 1.23 GB ||

Direct-1 Google Drive | Direct-2 | Direct-3 |

Watch Online Click Here

Post a Comment

0 Comments