Saheb Biwi Aur Gangster 3 (2018) Hindi 1080p WEB-DL AVC AAC DD.2 0 ~ DTOne


Poster


iMDB
Imdb Picture Title: Saheb Biwi Aur Gangster 3
Year: 2018
Runtime: 140 minutes
Votes: 33
Rating: 7.2/10
Language: Hindi
Country: India
All Genres: Action, Crime, Drama, Thriller
Plot Outline: The royal saga of deceit, conspiracy, greed and lust continues in the third installment of the series, as the Saheb and Biwi are pitted against an enemy and everyone involved is scheming ruthlessly for their own personal gain.
Director: Tigmanshu Dhulia
Writing By: Sanjay Chauhan,Tigmanshu Dhulia,
Produced By: Sankalp Acharekar,Tigmanshu Dhulia,Dharmindra K. Mehra,Rahul Mittra,Ajay Rai,
Music: Dharma Vish
Cast:
Jimmy Sheirgill as Aditya Pratap Singh
Sanjay Dutt as
Mahie Gill as Madhvi Devi
Chitrangda Singh as
Kabir Bedi as
Deepak Tijori as Vijay
Imran Hasnee as Bashir Ali
Deep Raj Rana as Kanhaiyaa
Nafisa Ali as
Alexx O'Nell as Stephen
Trailers:
Saheb Biwi Aur Gangster 3 trailer



Details
Name:Saheb Biwi Aur Gangster 3 (2018) Hindi 1080p WEB-DL AVC AAC DD.2 0 ~ DTOne
Description:
Saheb Biwi Aur Gangster 3 
(2018) 
1080p - UntoucheD WEB HD - AVC - AAC  - DTOne 10th Anniversary


Format                                   : MPEG-4
Format profile                           : Base Media
Codec ID                                 : isom (isom/iso2/avc1/mp41)
File size                                : 2.86 GiB
Duration                                 : 2 h 14 min
Overall bit rate                         : 3 044 kb/s
Writing application                      : Lavf57.75.100

Video
ID                                       : 1
Format                                   : AVC
Format/Info                              : Advanced Video Codec
Format profile                           : High@L4
Format settings                          : CABAC / 4 Ref Frames
Format settings, CABAC                   : Yes
Format settings, ReFrames                : 4 frames
Codec ID                                 : avc1
Codec ID/Info                            : Advanced Video Coding
Duration                                 : 2 h 14 min
Bit rate                                 : 3 000 kb/s
Width                                    : 1 920 pixels
Height                                   : 1 080 pixels
Display aspect ratio                     : 16:9
Frame rate mode                          : Variable
Frame rate                               : 25.000 FPS
Minimum frame rate                       : 0.166 FPS
Maximum frame rate                       : 25.000 FPS
Color space                              : YUV
Chroma subsampling                       : 4:2:0
Bit depth                                : 8 bits
Scan type                                : Progressive
Bits/(Pixel*Frame)                       : 0.058
Stream size                              : 2.80 GiB (98%)
Writing library                          : x264 core 152 r2854 e9a5903

Audio
ID                                       : 2
Format                                   : AAC
Format/Info                              : Advanced Audio Codec
Format profile                           : LC
Codec ID                                 : mp4a-40-2
Duration                                 : 2 h 14 min
Bit rate mode                            : Constant
Bit rate                                 : 64.0 kb/s
Channel(s)                               : 2 channels
Channel positions                        : Front: L R
Sampling rate                            : 48.0 kHz
Frame rate                               : 46.875 FPS (1024 SPF)
Compression mode                         : Lossy
Stream size                              : 61.7 MiB (2%)
Default                                  : Yes
Alternate group                          : 1



Category:Movies > Bollywood
Lang:Hindi
Total Size:2.86 GB





|| Download This Movie Via Single Resumable Links Size: 2.86 GB ||

Direct-1 Google Drive | Direct-2 | Direct-3 |

Watch Online Click Here

Post a Comment

0 Comments