Saheb Biwi Aur Gangster 3 (2018) Hindi 720p HDRip x264 AAC 2.0 ~ Ranvijay


Poster


iMDB
Imdb Picture Title: Saheb Biwi Aur Gangster 3
Year: 2018
Runtime: 140 minutes
Votes: 33
Rating: 7.2/10
Language: Hindi
Country: India
All Genres: Action, Crime, Drama, Thriller
Plot Outline: The royal saga of deceit, conspiracy, greed and lust continues in the third installment of the series, as the Saheb and Biwi are pitted against an enemy and everyone involved is scheming ruthlessly for their own personal gain.
Director: Tigmanshu Dhulia
Writing By: Sanjay Chauhan,Tigmanshu Dhulia,
Produced By: Sankalp Acharekar,Tigmanshu Dhulia,Dharmindra K. Mehra,Rahul Mittra,Ajay Rai,
Music: Dharma Vish
Cast:
Jimmy Sheirgill as Aditya Pratap Singh
Sanjay Dutt as
Mahie Gill as Madhvi Devi
Chitrangda Singh as
Kabir Bedi as
Deepak Tijori as Vijay
Imran Hasnee as Bashir Ali
Deep Raj Rana as Kanhaiyaa
Nafisa Ali as
Alexx O'Nell as Stephen
Trailers:
Saheb Biwi Aur Gangster 3 trailer



Details
Name:Saheb Biwi Aur Gangster 3 (2018) Hindi 1080p WEB-DL AVC AAC DD.2 0 ~ DTOne
Description:
Saheb Biwi Aur Gangster 3 (2018) Hindi 720p HDRip x264 AAC 2.0 ~ Ranvijay

General
Format                                   : Matroska
Format version                           : Version 4 / Version 2
File size                                : 1.41 GiB
Duration                                 : 2 h 14 min
Overall bit rate                         : 1 496 kb/s
Movie name                               : Saheb Biwi Aur Gangster 3 (2018) 720p HDRip x264 AAC 2.0 ~ Ranvijay

Video
ID                                       : 1
Format                                   : AVC
Format/Info                              : Advanced Video Codec
Duration                                 : 2 h 14 min
Bit rate                                 : 1 423 kb/s
Width                                    : 1 280 pixels
Height                                   : 540 pixels
Display aspect ratio                     : 2.40:1
Frame rate mode                          : Constant
Frame rate                               : 25.000 FPS
Color space                              : YUV
Chroma subsampling                       : 4:2:0
Bit depth                                : 8 bits
Scan type                                : Progressive
Bits/(Pixel*Frame)                       : 0.082
Stream size                              : 1.35 GiB (96%)
Title                                    : ~Ranvijay~

Audio
ID                                       : 2
Format                                   : AAC
Format/Info                              : Advanced Audio Codec
Format profile                           : LC
Codec ID                                 : A_AAC-2
Duration                                 : 2 h 14 min
Bit rate                                 : 64.0 kb/s
Channel(s)                               : 2 channels
Channel positions                        : Front: L R
Sampling rate                            : 48.0 kHz
Frame rate                               : 46.875 FPS (1024 SPF)
Compression mode                         : Lossy
Delay relative to video                  : -80 ms
Stream size                              : 61.7 MiB (4%)
Title                                    : ~Ranvijay~
Language                                 : Hindi
Default                                  : Yes
Forced                                   : Yes


MIfts.th.jpg MI8dK.th.jpg MIuZV.th.jpg MIhac.th.jpg MIdoz.th.jpg MI0V3.th.jpg MIq1M.th.jpg MIMAv.th.jpg MIYeE.th.jpg MIepd.th.jpg MIcv9.th.jpg MILdt.th.jpg MImC8.th.jpg MI6aJ.th.jpg MIwoD.th.jpg
Category:Movies > Bollywood
Lang:Hindi
Total Size:1.42 GB





|| Download This Movie Via Single Resumable Links Size: 1.66 GB ||

Direct-1 Google Drive | Direct-2 | Direct-3 |

Watch Online Click Here

Post a Comment

0 Comments