Star Trek Into Darkness (2013) IMAX BluRay 720p x264 {Dual Audio} [Hindi - English] - Hon3yHD


Poster


iMDB
Imdb Picture Title: Star Trek Into Darkness
Year: 2013
Runtime: 132 minutes
Votes: 420060
Rating: 7.8/10
Language: English, Klingon
Country: USA
All Genres: Action, Adventure, Sci-Fi
Plot Outline: After the crew of the Enterprise find an unstoppable force of terror from within their own organization, Captain Kirk leads a manhunt to a war-zone world to capture a one-man weapon of mass destruction.
Tagline: Earth will fall
Director: J.J. Abrams
Writing By: Roberto Orci,Alex Kurtzman,Damon Lindelof,Gene Roddenberry,
Produced By: J.J. Abrams,Bryan Burk,Jeffrey Chernov,David Ellison,Dana Goldberg,Tommy Gormley,Tommy Harper,Alex Kurtzman,Damon Lindelof,Roberto Orci,Michelle Rejwan,Ben Rosenblatt,Paul Schwake,
Music: Michael Giacchino
Plot:
When the USS Enterprise crew is called back home, they find an unstoppable force of terror from within their own organization has detonated the fleet and everything it stands for, leaving our world in a state of crisis. With a personal score to settle, Captain Kirk leads a manhunt to a war-zone world to capture a one-man weapon of mass destruction. As our space heroes are propelled into an epic chess game of life and death, love will be challenged, friendships will be torn apart, and sacrifices must be made for the only family Kirk has left: his crew.
- Written by Paramount Pictures
The latest mission of the USS Enterprise crew takes them into deep space to rescue an endangered species from an active volcano. However, once again Captain Kirk's reckless behavior compromises the mission and nearly gets him booted from Starfleet. Turning back to his mentor Admiral Pike, Kirk is demoted to an academy cadet and has to start over. However, when a ruthless warlord attacks Starfleet and shoots Admiral Pike in the process, Kirk takes command and takes the Enterprise deep into the neutral zone and the Klingon homeworld. Unknown to the crew, a Starfleet renegade is manipulating the Federation and the Klingons into a possible war. Kirk, Spock and the rest of the crew must stop the war before all hell breaks loose. And what awaits the crew of the USS Enterprise on their forthcoming five-year mission?
- Written by Blazer346
After the crew of the Enterprise find an unstoppable force of terror from within their own organization, Captain Kirk leads a manhunt to a war-zone world to capture a one-man weapon of mass destruction.
- Written by Paramount Pictures
Cast:
Chris Pine as Kirk
Zachary Quinto as Spock
Zoe Saldana as Uhura
Karl Urban as Bones
Simon Pegg as Scotty
John Cho as Sulu
Benedict Cumberbatch as Khan
Anton Yelchin as Chekov
Bruce Greenwood as Pike
Peter Weller as Marcus
Trailers:
Teaser 2
Teaser
Blu-ray Trailer
International Version
Teaser 2
Theatrical Version
Announcement Video



Details
Name:Star.Trek.Into.Darkness.2013.IMAX.BluRay.720p.x264.{Dual.Audio}.[Hindi.Org-English].-.Hon3yHD
Description:
 Star Trek Into Darkness (2013) IMAX BluRay 720p x264 {Dual Audio} [Hindi - English] - Hon3yHD

 

Format                      : Matroska
Format version              : Version 4 / Version 2
File size                   : 1.44 GiB
Duration                    : 2 h 13 min
Overall bit rate            : 1 545 kb/s
Movie name                  : ~Hammer~

Video
ID                          : 1
Format                      : AVC
Format/Info                 : Advanced Video Codec
Format profile              : High@L4.1
Format settings             : CABAC / 8 Ref Frames
Format settings, CABAC      : Yes
Format settings, ReFrames   : 8 frames
Codec ID                    : V_MPEG4/ISO/AVC
Duration                    : 2 h 13 min
Bit rate                    : 1 200 kb/s
Width                       : 1 280 pixels
Height                      : 532 pixels
Display aspect ratio        : 2.40:1
Frame rate mode             : Constant
Frame rate                  : 23.976 (24000/1001) FPS

Audio #1
ID                          : 2
Format                      : AAC
Format/Info                 : Advanced Audio Codec
Format profile              : LC
Codec ID                    : A_AAC-2
Duration                    : 2 h 13 min
Bit rate                    : 159 kb/s
Channel(s)                  : 2 channels
Channel positions           : Front: L R
Sampling rate               : 48.0 kHz
Frame rate                  : 46.875 FPS (1024 SPF)
Compression mode            : Lossy
Delay relative to video     : -21 ms
Stream size                 : 152 MiB (10%)
Title                       : Stereo
Language                    : Hindi

Audio #2
ID                          : 3
Format                      : AAC
Format/Info                 : Advanced Audio Codec
Format profile              : LC
Codec ID                    : A_AAC-2
Duration                    : 2 h 12 min
Bit rate                    : 160 kb/s
Channel(s)                  : 2 channels
Channel positions           : Front: L R
Sampling rate               : 48.0 kHz
Frame rate                  : 46.875 FPS (1024 SPF)
Compression mode            : Lossy
Delay relative to video     : -21 ms
Stream size                 : 151 MiB (10%)
Title                       : Stereo
Language                    : English

       
Category:Movies > Hollywood Dub
Lang:Hindi
Total Size:1.44 GB





|| Download This Movie Via Single Resumable Links Size: 1.44 GB ||

Direct-1 Google Drive | Direct-2 | Direct-3 |

Watch Online Click Here

Post a Comment

0 Comments