Sudden Death (1995) BluRay 720p x264 [Dual Audio] [Hindi - Eng] AAC Esub -=!Katyayan!=-


Poster


iMDB
Imdb Picture Title: Sudden Death
Year: 1995
Runtime: 111 minutes
Votes: 28717
Rating: 5.7/10
Language: English
Country: USA
All Genres: Action, Crime, Thriller
Plot Outline: Some terrorists kidnap the Vice President of the United States and threaten to blow up the entire stadium during the final game of the NHL Stanley Cup. There is only one way and one man to stop them... Written by Volker Boehm
Tagline: Tonight, 17 thousand hockey fans have been taken hostage...but just one of them knows it.
Director: Peter Hyams
Writing By: Karen Elise Baldwin,Gene Quintano,
Produced By: Howard Baldwin,Karen Elise Baldwin,Jason Clark,Richard M. Cohen,Moshe Diamant,Anders P. Jensen,Deborah Lee,Jack Frost Sanders,Ash R. Shah,Sundip R. Shah,Sunil R. Shah,
Music: John Debney
Cast:
Jean-Claude Van Damme as Darren McCord
Powers Boothe as Joshua Foss
Raymond J. Barry as Vice President
Whittni Wright as Emily McCord
Ross Malinger as Tyler McCord
Dorian Harewood as Hallmark
Kate McNeil as Kathi
Michael Gaston as Hickey
Audra Lindley as Mrs. Ferrara
Brian Delate as Blair
Trailers:
Sudden Death



Details
Name:Sudden Death (1995) BluRay 720p x264 [Dual Audio] [Hindi - Eng] AAC Esub -=!Katyayan!=-
Description:
Sudden Death (1995) BluRay 720p x264 [Dual Audio] [Hindi - Eng] AAC Esub -=!Katyayan!=-


 


-=====================Source Credit=====================-
:::::::::::::::::::> Video ---- Yifi
:::::::::::::::::::> Audio ---- Org VCD DD 2.0 224Kbps Hindi By ~Hammer



Format                                   : Matroska
Format version                           : Version 4 / Version 2
File size                                : 1 004 MiB
Duration                                 : 1 h 49 min
Overall bit rate                         : 1 276 kb/s
Movie name                               : Sudden Death (1995) BluRay 720p x264 [Dual Audio] [Hindi - Eng] AAC Esub -=!Katyayan!=-
Encoded date                             : UTC 2018-08-15 04:38:37
Writing application                      : mkvmerge v24.0.0 ('Beyond The Pale') 64-bit
Writing library                          : libebml v1.3.6 + libmatroska v1.4.9
Cover                                    : Yes
Attachments                              : Sudden Death (1995) Cover.jpg

Video
ID                                       : 1
Format                                   : AVC
Format/Info                              : Advanced Video Codec
Format profile                           : High@L4.1
Format settings                          : CABAC / 4 Ref Frames
Format settings, CABAC                   : Yes
Format settings, RefFrames               : 4 frames
Codec ID                                 : V_MPEG4/ISO/AVC
Duration                                 : 1 h 49 min
Bit rate                                 : 1 050 kb/s
Width                                    : 1 280 pixels
Height                                   : 544 pixels
Display aspect ratio                     : 2.35:1
Frame rate mode                          : Constant
Frame rate                               : 23.976 (24000/1001) FPS
Color space                              : YUV
Chroma subsampling                       : 4:2:0
Bit depth                                : 8 bits
Scan type                                : Progressive
Bits/(Pixel*Frame)                       : 0.063
Stream size                              : 826 MiB (82%)
Title                                    : Sudden Death (1995) BluRay 720p x264 [Dual Audio] [Hindi - Eng] AAC Esub -=!Katyayan!=-
Writing library                          : x264 core 152
Language                                 : English
Default                                  : Yes
Forced                                   : No

Audio #1
ID                                       : 2
Format                                   : AAC
Format/Info                              : Advanced Audio Codec
Format profile                           : HE-AAC / LC
Format settings                          : Explicit
Codec ID                                 : A_AAC-2
Duration                                 : 1 h 49 min
Bit rate                                 : 128 kb/s
Channel(s)                               : 2 channels
Channel positions                        : Front: L R
Sampling rate                            : 48.0 kHz / 24.0 kHz
Frame rate                               : 23.438 FPS (1024 SPF)
Compression mode                         : Lossy
Delay relative to video                  : 31 ms
Stream size                              : 101 MiB (10%)
Title                                    : -=!Katyayan!=-
Language                                 : Hindi
Default                                  : Yes
Forced                                   : Yes

Audio #2
ID                                       : 3
Format                                   : AAC
Format/Info                              : Advanced Audio Codec
Format profile                           : HE-AAC / LC
Format settings                          : Explicit
Codec ID                                 : A_AAC-2
Duration                                 : 1 h 49 min
Bit rate                                 : 96.0 kb/s
Channel(s)                               : 2 channels
Channel positions                        : Front: L R
Sampling rate                            : 48.0 kHz / 24.0 kHz
Frame rate                               : 23.438 FPS (1024 SPF)
Compression mode                         : Lossy
Stream size                              : 75.5 MiB (8%)
Title                                    : -=!Katyayan!=-
Language                                 : English
Default                                  : No
Forced                                   : No

Text
ID                                       : 4
Format                                   : UTF-8
Codec ID                                 : S_TEXT/UTF8
Codec ID/Info                            : UTF-8 Plain Text
Duration                                 : 1 h 43 min
Bit rate                                 : 55 b/s
Count of elements                        : 1014
Stream size                              : 41.8 KiB (0%)
Title                                    : -=!Katyayan!=-
Language                                 : English
Default                                  : Yes
Forced                                   : Yes



 
Category:Movies > Hollywood Dub
Lang:Hindi
Total Size:1,004.08 MB





|| Download This Movie Via Single Resumable Links Size: 1004 MB ||

Direct-1 Google Drive | Direct-2 | Direct-3 |

Watch Online Click Here

Post a Comment

0 Comments